<?xml version="1.0" standalone="no"?>
<!DOCTYPE svg PUBLIC "-//W3C//DTD SVG 1.1//EN" "http://www.w3.org/Graphics/SVG/1.1/DTD/svg11.dtd">
<svg xmlns="http://www.w3.org/2000/svg">
<metadata>Copyright (C) 2017 by original authors @ fontello.com</metadata>
<defs>
<font id="fontello" horiz-adv-x="1000" >
<font-face font-family="fontello" font-weight="400" font-stretch="normal" units-per-em="1000" ascent="850" descent="-150" />
<missing-glyph horiz-adv-x="1000" />
<glyph glyph-name="drugs" unicode="&#xe800;" d="M833 633v217h-666v-217h50v-16h-22c-16 0-28-13-28-28v-44c0-16 12-28 28-28h22v-567h-22c-16 0-28-13-28-28v-44c0-16 12-28 28-28h610c16 0 28 12 28 28v44c0 15-12 28-28 28h-22v33 500 34h22c16 0 28 12 28 28v44c0 15-12 28-28 28h-22v16h50z m-633 34v150h50v-34h33v34h34v-34h33v34h33v-34h34v34h33v-34h33v34h34v-34h33v34h33v-34h34v34h33v-34h33v34h34v-34h33v34h50v-150h-17-33v33h-33v-33h-34v33h-33v-33h-33v33h-34v-33h-33v33h-33v-33h-34v33h-33v-33h-33v33h-34v-33h-33v33h-33v-33h-34v33h-33v-33h-33-17z m578-750h22v-34h-600v34h22c15 0 28 12 28 28v38h500v-38c0-16 13-28 28-28z m-527 100v433h499v-433h-499z m549 566v-33h-22c-15 0-28-13-28-28v-39h-500v39c0 15-13 28-28 28h-22v33h17 566 17z m-50 34h-500v16h500v-16z m-183-217h-134v-100h-100v-133h100v-100h134v100h100v133h-100v100z m66-133v-67h-100v-100h-66v100h-100v67h100v100h66v-100h100z" horiz-adv-x="1000" />

<glyph glyph-name="canine-3" unicode="&#xe806;" d="M1000 567v33c-77 0-208-23-254-77-17 39-38 68-71 86l-16-30c31-16 51-47 73-114 34-103 39-232 40-320 1-81-156-244-251-260-11-2-20-2-27-1-90 14-286 183-283 260 3 93 28 222 65 345 9 31 25 54 50 72l-19 27c-23-17-41-38-53-64-47 53-177 76-254 76v-33c107 0 238-40 238-86h1c-35-120-58-244-61-335-4-102 213-279 311-295 5-1 9-1 14-1 8 0 15 1 24 2 104 18 280 188 279 293-2 143-15 248-42 330-1 2-1 4-2 6h0c0 46 131 86 238 86z m-639-168c-8-3-13-12-10-21 2-7 9-11 16-11 1 0 3 0 5 1l11 3v-21-74l60-59h114l60 59v74 33 61l21 7c9 3 14 12 11 21-3 9-12 13-21 11l-11-4v65l21 7c9 3 14 12 11 21-3 9-12 13-21 11l-11-4v65l21 7c9 3 14 12 11 21-3 9-12 13-21 11l-11-4v38h-34v55l-58 78h-50l-58-78v-55h-34v-111l-22-7c-8-3-13-12-10-21 2-7 9-11 16-11 1 0 3 0 5 1l11 3v-64l-22-8c-8-3-13-12-10-21 2-7 9-11 16-11 1 0 3 0 5 1l11 3v-64l-22-8z m222-109l-40-40h-86l-40 40v60h166v-60z m-166 192l38 13c9 3 14 13 11 21-3 9-12 14-21 11l-28-9v64l38 13c9 3 14 13 11 21-3 9-12 14-21 11l-28-9v65h33v78l42 56h16l42-56v-78h33v-15l-71-22c-9-3-14-13-11-21 2-7 9-12 16-12 1 0 3 0 5 1l61 19v-65l-71-22c-9-3-14-13-11-21 2-7 9-12 16-12 1 0 3 0 5 1l61 19v-65l-71-22c-9-3-14-13-11-21 2-7 9-12 16-12 1 0 3 0 5 1l61 19v-50h-164l36 12c9 3 14 13 11 21-3 9-12 14-21 11l-28-9v64z" horiz-adv-x="1000" />

<glyph glyph-name="cardiogram" unicode="&#xe807;" d="M998 538c-14 160-128 277-270 277-86 0-168-43-219-115-4-6-9-7-12-7-2 0-7 1-11 7-50 73-128 115-214 115-142 0-256-117-270-277-1-7-6-45 8-106 21-87 69-167 139-231l348-316 354 316c18 17 35 34 50 52 0 1 0 1 0 1 43 53 74 114 89 178 14 61 10 99 8 106z m-501-602l-323 293c-7 6-13 13-19 19h58c7 0 14 4 17 11l75 166 97-240c2-7 9-12 16-12 0 0 1 0 1 0 7 0 13 4 16 10l78 140 40-67c4-6 11-10 19-9 8 2 14 8 15 15l54 257 41-255c1-9 9-16 18-16h145c-6-6-12-13-19-19l-329-293z m456 505c-13-56-39-109-75-156h-162l-54 341c-1 9-9 15-18 16-9 0-17-6-18-15l-66-310-31 53c-4 6-9 9-17 9-6 0-12-4-16-9l-74-135-98 245c-3 7-10 11-17 12-7 0-14-5-18-11l-88-196h-79c-36 47-62 100-75 156-14 58-8 91-8 91l0 2c13 141 111 243 233 243 73 0 140-36 183-98 10-15 25-23 42-23 17 0 33 8 43 22 44 62 114 99 188 99 123 0 221-102 233-245 0 0 6-33-8-91z" horiz-adv-x="1000" />

<glyph glyph-name="cardiogram-1" unicode="&#xe808;" d="M883 333h-185l-48 303c-1 8-8 14-16 14 0 0 0 0-1 0-7 0-14-5-16-13l-58-276-28 48c-3 5-9 8-15 8-5 0-11-4-14-9l-66-119-87 217c-3 6-9 11-15 11-7 0-13-4-16-10l-79-174h-122c-9 0-17-7-17-16s8-17 17-17h133c7 0 13 4 15 10l67 148 86-214c2-6 8-10 14-11 1 0 1 0 1 0 6 0 12 4 15 9l69 125 35-59c4-6 11-9 17-8 7 1 13 6 14 13l48 228 36-227c1-8 8-14 16-14h200c10 0 17 8 17 17s-7 16-17 16z m-683-350c46 0 83 38 83 84s-37 83-83 83-83-37-83-83 37-84 83-84z m0 134c22 0 40-14 47-34h-47c-9 0-17-7-17-16s8-17 17-17h47c-7-19-25-33-47-33-28 0-50 22-50 50s22 50 50 50z m417-134h83 150c9 0 17 8 17 17v133c0 10-8 17-17 17h-150-83c-9 0-17-7-17-17v-133c0-9 8-17 17-17z m216 34h-116v100h116v-100z m-200 100h50v-100h-50v100z m-200-134c23 0 44 9 59 25 16 16 25 36 25 59s-9 43-25 59-36 24-59 24-43-9-59-24c-15-16-24-37-24-59s9-43 24-59c16-16 37-25 59-25z m-35 119c5 5 12 9 19 12v-47c0-9 7-17 16-17s17 8 17 17v47c7-3 13-7 19-12 9-9 14-22 14-35s-5-26-14-36c-19-19-52-19-71 0-9 10-15 22-15 36s6 26 15 35z m-398 731v-633-33-234h33v-66h134v66h666v-66h134v66h33v234 33 633h-1000z m133-933h-66v33h66v-33z m800 0h-66v33h66v-33z m34 67h-134-666-134v200h934v-200z m-934 233v600h934v-600h-934z m91 403l81-69c3-3 7-4 12-4 4 0 8 1 12 4l81 70c19 16 32 36 37 59 4 15 3 25 3 29-5 43-38 75-78 75-22 0-42-12-55-27-14 15-33 27-56 27-40 0-73-32-77-75-1-4-2-14 2-29 6-23 19-43 38-60z m-7 84l0 1c2 23 18 45 44 45 19 0 34-16 40-31l16-34 15 34c7 15 22 31 40 31 26 0 42-22 45-46 0 0 0-6-2-16-4-16-13-30-27-42l-71-61-72 61c-13 12-22 26-26 42-3 10-2 16-2 16z m716 30h67c9 0 17 7 17 16s-8 17-17 17h-67c-9 0-16-7-16-17s7-16 16-16z m84-34h-134c-9 0-16-7-16-16s7-17 16-17h134c9 0 16 7 16 17s-7 16-16 16z m-17-66h-67c-9 0-16-8-16-17s7-17 16-17h67c9 0 17 8 17 17s-8 17-17 17z" horiz-adv-x="1000" />

<glyph glyph-name="cardiogram-2" unicode="&#xe809;" d="M942 758h-884c-32 0-58-26-58-57v-652c0-31 26-57 58-57h9v-50h133v50h600v-50h133v50h9c32 0 58 26 58 57v652c0 31-26 57-58 57z m-775-783h-67v17h67v-17z m733 0h-67v17h67v-17z m67 74c0-13-11-24-25-24h-9-133-600-133-9c-14 0-25 11-25 24v652c0 13 11 24 25 24h884c14 0 25-11 25-24v-652z m-50 643h-834c-9 0-16-8-16-17v-567c0-9 7-16 16-16h834c9 0 16 7 16 16v567c0 9-7 17-16 17z m-17-34v-316h-221l-63 221c-2 7-9 12-16 12-7 0-14-5-16-12l-56-197-30 51c-4 5-10 9-16 8-7-1-12-5-14-11l-36-106-66 173c-3 7-9 11-16 11-7 0-14-5-16-12l-46-138h-188v316h800z m-800-533v183h200c7 0 14 5 16 12l35 106 67-174c2-6 9-10 15-10 1 0 1 0 1 0 7 0 13 4 15 11l39 116 31-53c3-6 10-9 17-8 6 1 12 5 13 12l51 178 51-178c2-7 8-12 16-12h233v-183h-800z m800-50h-17c-9 0-16-7-16-17s7-16 16-16h17c9 0 17 7 17 16s-8 17-17 17z m-67 0h-16c-9 0-17-7-17-17s8-16 17-16h16c10 0 17 7 17 16s-7 17-17 17z m-66 0h-17c-9 0-17-7-17-17s8-16 17-16h17c9 0 16 7 16 16s-7 17-16 17z" horiz-adv-x="1000" />

<glyph glyph-name="caries" unicode="&#xe80a;" d="M938 662c-15 54-57 107-119 147-77 49-186 55-284 14l-3-1c-2-1-4-2-5-2-9-3-15-6-20-8-16-6-16-6-43 2-77 22-174 45-249 19-101-36-191-155-163-340 3-21 6-43 9-66 24-159 48-324 109-472l2-5c16-38 41-100 86-100h3l4 1c41 18 56 57 67 86 8 19 14 39 21 58 8 25 17 49 27 72 22-45 68-120 128-120 7 0 15 1 22 4 40 11 60 53 75 83l1 2c3 6 7 14 11 22 4 7 9 16 13 25 5-14 9-29 12-43 5-16 9-33 14-49 21-66 49-133 93-138 23-2 45 13 63 47 35 60 50 128 64 193l5 23c6 25 12 51 19 78 36 150 77 320 38 468z m-352-588c-5-8-9-16-12-23l-1-2c-13-25-28-57-53-65-59-17-113 107-119 121l-1 3c2 4 3 7 5 10 3 4 5 7 7 11 22 31 79 98 152 55 5-3 10-7 15-11 2-2 4-4 5-5 3-3 6-6 8-9 3-2 5-5 7-9 1-1 3-3 4-5 3-5 6-10 8-15 1 0 1-1 1-1-7-18-17-38-26-55z m279 128c-6-27-12-53-18-78l-5-23c-14-63-28-128-60-184-11-19-22-29-29-29-8 1-31 14-63 114-5 15-9 30-13 47-14 53-30 113-75 151-1 0-1 0-1 0-6 5-12 10-19 14-68 40-144 15-199-65-30-45-47-95-64-143-6-19-13-38-20-57-11-29-22-52-44-63-20 5-42 57-50 77l-2 5c-60 145-84 307-107 465-3 22-6 44-9 66-18 118 18 257 140 300 20 7 42 10 65 10 54 0 114-15 160-28 113-65 113-93 113-208l0-23c0-10 8-18 18-18s17 8 17 18l0 23c1 101 0 148-80 206l0 0c5 2 11 5 18 7 3 1 5 2 8 3l3 1c87 37 183 32 250-11 55-35 92-80 104-126 37-139-3-305-38-451z m-583 436c-49 0-88-40-88-88s39-89 88-89 88 40 88 89-39 88-88 88z m0-141c-29 0-53 23-53 53s24 53 53 53 53-24 53-53-24-53-53-53z m495-36c-49 0-88-39-88-88s39-88 88-88 88 39 88 88-39 88-88 88z m0-141c-29 0-53 24-53 53s24 53 53 53 53-24 53-53-24-53-53-53z" horiz-adv-x="1000" />

<glyph glyph-name="caries-1" unicode="&#xe80b;" d="M938 662c-15 54-57 107-120 147-76 49-185 55-283 14l-3-1c-2-1-4-2-5-2-9-3-15-6-20-8-16-6-16-6-43 2-77 22-174 45-249 19-101-36-191-155-163-340 3-21 6-43 9-65 24-160 48-324 109-473l2-5c16-38 41-100 86-100h3l4 1c41 18 56 57 67 86 8 19 14 39 21 58 16 48 32 93 59 134 22 31 79 98 152 55 48-29 64-88 78-144 5-16 9-33 14-49 21-66 49-133 93-138 23-2 44 13 63 46 35 61 50 129 64 194l5 23c6 25 12 51 19 78 36 150 77 320 38 468z m-73-460c-6-27-12-53-18-78l-5-23c-14-63-28-128-60-184-11-19-22-29-29-29-8 1-31 14-63 114-5 15-9 30-13 47-16 60-34 129-95 165-68 40-144 15-199-65-30-45-47-95-64-143-6-19-13-38-20-57-11-29-22-52-44-63-20 5-42 57-50 77l-2 5c-60 145-84 307-107 465-3 22-6 44-9 66-18 118 18 257 140 300 20 7 42 10 65 10 54 0 114-15 160-28 113-65 113-93 113-208l0-23c0-10 8-18 17-18s18 8 18 18l0 23c1 101 0 148-80 206l0 0c5 2 10 5 18 7 3 1 5 2 8 3l3 1c87 37 183 32 250-11 55-35 92-80 104-126 37-139-3-305-38-451z m-88 489c-49 0-88-40-88-88s39-89 88-89 88 40 88 89-39 88-88 88z m0-141c-29 0-53 23-53 53s24 53 53 53 53-24 53-53-24-53-53-53z m-530-177c-39 0-71-32-71-71s32-70 71-70 70 31 70 70-31 71-70 71z m0-106c-20 0-36 16-36 35 0 20 16 36 36 36s35-16 35-36c0-19-16-35-35-35z" horiz-adv-x="1000" />

<glyph glyph-name="crutches" unicode="&#xe80c;" d="M984 673l-137 136c-22 22-57 22-79 0l-25-25c-18-18-21-44-10-65l-231-231-233 234c9 20 5 45-12 62l-25 25c-22 22-57 22-79 0l-136-136c-23-22-23-58 0-80l25-25c11-11 25-16 39-16 9 0 18 2 26 6l267-267-14-14 12-12-264-263-21-10c-18-7-31-23-35-43s3-39 17-52l5-5c11-11 26-18 41-18 4 0 8 1 11 1 20 4 36 17 43 35l9 21 265 265c4-1 7-2 10-2 7 0 14 3 19 8l30 30 29-29c5-5 12-7 18-7 4 0 7 1 10 2l265-264 9-22c8-18 24-30 43-34 4-1 8-1 11-1 16 0 31 6 42 17l5 5c14 14 20 34 16 53-4 19-17 35-35 43l-21 9-264 265c3 6 3 14-1 21l267 267c7-4 15-5 23-5 14 0 29 5 40 16l25 25c22 22 22 58 0 80z m-267-238l-108 107 17 17 107-108-16-16z m-134 86l115-115-91-91-22 21-25 26c0 0 0 1 0 1 2 3 3 5 4 8 1 1 2 3 2 4 2 4 3 8 4 12 3 19-2 36-17 51l-27 26 57 57z m-54-107c2-2 3-4 4-6 1-1 2-3 3-4 0 0 0 0 0 0 1-4 1-8 0-11-1-8-7-18-16-27l-32-32-26-26c0 0 0 0 0 0l0 0c-9-9-19-15-27-16-3-1-7-1-11 0 0 0 0 0 0 0-1 1-3 2-4 3-2 1-4 2-6 4l-4 4-105 105 115 115 58-59v0l51-50z m-138 128l-108-107-16 16 107 108 17-17z m-326 50l-24 25c-9 9-9 23 0 32l136 136c4 5 10 7 16 7s11-2 15-7l25-25c9-9 9-23 0-32l-136-136c-8-9-23-9-32 0z m183 103l107-107-115-115-107 107 115 115z m-110-772c-3-7-10-13-18-14-8-2-17 1-22 7l-5 5c-6 6-9 14-7 22s7 15 14 18l14 6 30-30-6-14z m26 42l-22 22 254 254 22-22-254-254z m314 291l-25-25-26 26c1 0 1 0 2 0 0 0 1 0 1 0 4 0 8 1 11 1 4 1 8 2 12 4 1 0 3 1 4 2 3 1 5 2 8 4 0 0 1 0 1 0l4-3 8-9z m14 35l20 20 26 25 57-57-46-46-57 58z m425-346c1-8-1-16-7-22l-5-5c-6-6-14-8-22-7-9 2-15 7-19 15l-6 13 31 30 13-5c8-4 13-10 15-19z m-79 22l-253 254 22 22 254-253-23-23z m-76 503l-115 115 107 107 115-115-107-107z m198 147l-25-25c-9-9-23-9-32 0l-136 136c-9 9-9 23 0 32l25 25c8 9 23 9 32 0l136-136c8-9 8-23 0-32z" horiz-adv-x="1000" />

<glyph glyph-name="dental-drill" unicode="&#xe80d;" d="M775 817h-33v16c0 10-8 17-17 17h-283c-59 0-107-44-116-100h-56c-5 10-16 17-28 17-19 0-34-15-34-34s15-33 34-33c12 0 23 7 28 17h56c9-57 57-100 116-100h44c-71-80-111-186-111-294v-356c0-10 7-17 17-17v-33c0-10 7-17 16-17h19c8-29 34-50 65-50 36 0 66 30 66 67 0 18 15 33 34 33s33-15 33-33v-50c0-10 8-17 17-17s16 7 16 17v50c0 36-30 66-66 66s-67-30-67-66c0-19-15-34-33-34-13 0-23 7-29 17h12c9 0 17 7 17 17v33c9 0 16 7 16 17v319c0 109 43 213 121 290l40 41h56c9 0 17 7 17 16v17h33c9 0 17 8 17 17v133c0 9-8 17-17 17z m-417-84c0 46 38 84 84 84v-167c-46 0-84 37-84 83z m117-750h-67v74l67 39v-113z m0 152l-67-39v60l67 34v-55z m0 151v-59l-67-33v62l67 34c0-2 0-3 0-4z m-17-353h-33v17h33v-17z m147 667c-74-74-118-169-128-272l-69-34v29c0 111 45 217 124 294h90l-17-17z m103 50h-46-54v33c0 10-7 17-16 17s-17-7-17-17v-33h-50-50v167h100v-34c0-9 8-16 17-16s16 7 16 16v34h100v-17-133-17z m50 33h-16v100h16v-100z" horiz-adv-x="1000" />

<glyph glyph-name="dental-floss" unicode="&#xe80e;" d="M467 17c128 0 233 104 233 233s-105 233-233 233-234-104-234-233 105-233 234-233z m0 433c110 0 200-90 200-200s-90-200-200-200-200 90-200 200 89 200 200 200z m0-367c92 0 166 75 166 167s-74 167-166 167-167-75-167-167 75-167 167-167z m0 300c73 0 133-59 133-133s-60-133-133-133-134 60-134 133 60 133 134 133z m0-233c55 0 100 45 100 100s-45 100-100 100-100-45-100-100 45-100 100-100z m0 167c36 0 66-30 66-67s-30-67-66-67-67 30-67 67 30 67 67 67z m83 500h33c74 0 134-60 134-134 0-64 52-116 116-116s117 52 117 116c0 10-7 17-17 17s-16-7-16-17c0-46-38-83-84-83s-83 37-83 83c0 92-75 167-167 167h-33c-55 0-100-45-100-100v-17h-67v-58c-194-39-333-209-333-408v-221c0-108 88-196 196-196h442c108 0 195 88 195 196v221c0 199-139 369-333 408v58h-67v17c0 37 30 67 67 67z m-33-117v-53l14-2c185-31 319-190 319-378v-221c0-90-73-163-162-163h-442c-90 0-163 73-163 163v221c0 188 135 347 320 378l14 2v53h33v-100c0-31-10-45-70-63-1 0-3-1-4-1-1 0-2-1-3-1 0 0-1 0-1-1-119-40-205-152-205-284 0-165 134-300 300-300s300 135 300 300c0 164-133 298-297 300 9 13 13 29 13 50v100h34z m-130-195c0 0 1 0 1 0 25 8 51 12 79 12 147 0 266-120 266-267s-119-267-266-267-267 120-267 267c0 119 79 221 187 255z" horiz-adv-x="1000" />

<glyph glyph-name="dna" unicode="&#xe80f;" d="M464 610c0 0 1 0 2 0 8 0 15 6 17 14l0 1c1 11 4 21 6 30 3 9-2 18-11 21-9 2-18-3-21-12-3-11-5-22-7-34 0-1 0-2 0-3 0-8 6-15 14-17z m204 198c0 0 1 0 2 0 11 2 22 3 32 4 10 1 16 9 16 18-1 9-9 16-18 15-13-1-24-2-35-4-8-2-14-9-14-17 0-1 0-2 0-3 2-8 8-13 17-13z m197-9c10-2 21-4 33-7 1-1 2-1 4-1 7 0 14 5 16 13 2 9-3 18-12 20-12 3-23 5-34 8-9 2-18-4-20-13 0-1 0-2 0-4 0-7 6-14 13-16z m-536-894c-10-2-20-3-32-3-9-1-16-8-16-17 0 0 0 0 0-1 1-9 8-16 17-16 0 0 0 0 1 0 11 1 23 2 35 3 9 2 15 10 14 19-1 9-10 16-19 15z m235 333c-2 11-5 22-8 34-2 8-12 14-20 11-9-2-15-11-12-20 3-10 5-21 7-31 0 0 0-1 1-1l0-1c2-7 8-12 16-12 1 0 2 0 3 0 8 2 14 9 14 17 0 0-1 1-1 2h0l0 1z m-9-155c-9 2-18-3-20-12-3-11-6-21-9-30-1-2-2-4-2-6 1-7 5-13 11-16 2 0 4-1 6-1 7 0 13 5 16 11 4 11 7 22 10 34 2 9-3 18-12 20z m-70 327c2 0 4 0 5 1 7 2 12 9 12 16 0 2 0 3-1 5-3 11-6 22-8 31-2 9-11 15-20 13-9-2-14-11-12-20 2-11 5-22 8-34 2-7 9-12 16-12z m498 357c7 0 14 4 16 11 3 9-2 18-10 21-6 2-11 4-16 6 0 0-1 0-1 0 0 0 0 0 0 0-4 1-8 1-12-1-3 12-7 23-11 35-3 8-12 13-21 10-9-3-13-12-10-21 22-65 36-126 43-182l-165 164c2 0 3 0 4 0 1 0 2 0 2 0 9 0 16 6 17 14 0 5-1 9-4 13-3 3-7 5-11 6-12 1-24 2-35 3-2 0-5-1-8-2-6 4-14 3-19-3-7-6-7-17 0-23l222-223c2-47-4-89-15-126l-331 331c2 4 2 8 0 12-3 8-13 13-22 9-11-4-22-10-32-16-5-3-8-8-8-14 0-3 1-6 2-9 3-5 9-8 15-8 3 0 6 1 8 2 3 2 6 4 9 5l345-346c-11-23-25-43-42-59-7-7-14-12-22-18l-356 356c6 8 12 16 18 23 6 7 6 18-1 24-7 6-18 5-24-2-8-9-15-18-22-29-1-2-2-4-2-6 0-1-1-1-1-1-7-7-7-17 0-24l358-358c-34-16-74-23-119-22l-243 243c-1 8-9 15-17 14-9 0-16-8-16-17 0-11 1-23 3-35 1-8 8-15 16-15 1 0 1 0 2 0 5 1 8 3 11 7l193-193c-45 7-94 20-146 40-1 2-2 4-2 6-4 8-14 13-22 10-2-1-4-3-6-5-169 62-308 53-392-27-58-56-86-142-83-249 0-1 0-2 1-2 1-48 9-101 23-156-2 2-4 3-6 4-5 2-11 3-16 5-9 3-18-2-21-10-3-9 2-18 10-21 6-2 11-4 16-6 2 0 4-1 6-1 7 0 13 5 15 12 1 0 0 0 1 1 5-21 11-42 19-63 2-7 8-11 15-11 2 0 4 0 6 1 8 3 13 12 10 21-2 7-4 14-7 21 1 0 1 0 1 0l1 0c11-3 22-6 33-8 1 0 2 0 3 0 8 0 15 5 17 13 0 4 0 9-3 12-2 4-6 7-10 8-11 2-22 4-32 7-7 2-14-1-18-6-13 48-23 93-27 135l148-148c-2 0-4 0-6 0l0-1 0 1c-9 1-18-5-19-14 0-1 0-2 0-2 0-9 6-16 15-17 11-1 23-3 34-3 1 0 1 0 1 0 3 0 6 1 9 2 3-2 6-3 9-3 5 0 9 1 12 5 7 6 7 17 0 23l-207 207c-1 47 5 89 17 125l315-315c-3-3-4-7-4-11 0-2 0-4 0-6 3-7 9-11 16-11 2 0 4 0 5 1l1 0c12 4 23 8 33 13 8 4 12 14 8 22-4 8-14 12-23 8-1 0-2-1-3-2l-335 335c11 23 25 43 43 60 7 6 14 12 21 17l351-351c-1 0-2-1-3-2-7-8-14-16-21-23-4-3-6-7-6-12 0-4 2-8 4-11 3-4 8-6 13-6 4 0 8 2 11 4l1 2c9 8 17 16 24 25 2 3 3 7 3 10 3 1 5 2 7 4 6 7 6 17 0 24l-354 354c34 16 73 23 118 23l247-247v0c0-9 7-17 17-17h0c9 0 16 8 16 17 0 1 0 3 0 4 0 1 0 2 0 3 0 0 0 0 0 0 0 9 0 18-1 28 0 9-8 16-18 15-4 0-8-2-11-5 0-1 0-1 0-1l-200 200c47-6 99-19 154-41 2-4 3-7 5-11 2-7 8-11 15-11 2 0 4 0 6 1 4 1 7 4 9 8 65-23 125-36 180-38 0 0 1 0 1 0 0 0 0 0 1 0 82-3 151 19 200 66 23 22 41 49 54 80 1 0 1 1 1 1 20 47 28 103 26 166 1 2 0 4 0 7-2 50-11 105-27 164 3-1 5-1 8-2 2-1 4-1 5-1z" horiz-adv-x="1000" />

<glyph glyph-name="dropper" unicode="&#xe810;" d="M985-63l-44 44-24 120-453 452 51 51-84 84-51-51-30 31 24 24c6 7 6 17 0 24s-18 7-24 0l-24-24-1 1-123 122c-46 47-121 47-167 0-47-46-47-121 0-167l123-124-24-24c-6-6-6-17 0-23 4-4 8-5 12-5s9 1 12 5l24 23 0 0 31-30-45-45 83-84 46 45 212-213 0 0 240-240 120-24 44-44c10-10 23-15 36-15 13 0 26 5 36 15 3 2 5 5 7 8 5 8 8 18 8 28 0 13-5 26-15 36z m-614 571l-36 36 36 36 36-36-36-36z m-60 12l36-36-36-36-36 36 36 36z m120 120l36-36-27-27 0 0-9-9-36 36 9 9 0 0 27 27z m-372 151c16 17 38 25 59 25s44-8 60-25l123-122-120-120-122 123c-33 33-33 86 0 119z m147-267l120 120 30-31-119-119-31 30z m45-135l-35 36 21 21 14 14 36-35-14-15-22-21z m189 141l357-357h-231l21 22c7 7 7 17 0 24s-17 7-23 0l-26-26-27 27 26 26c6 6 6 17 0 24s-18 6-24 0l-26-26-27 27 26 26c7 6 7 17 0 23s-17 7-24 0l-26-26-27 27 26 26c7 7 7 18 0 24s-17 7-24 0l-26-26-64 65 119 120z m521-641c-6-7-17-7-24 0l-51 51-120 24-55 56c0 0 0 0 0 1 0 9-8 17-17 17 0 0-1-1-1-1l-102 102h240l55-55 9-47c-8-1-15-8-15-16 0-10 8-17 17-17 2 0 3 0 5 1l8-41 51-51c7-7 7-18 0-24z" horiz-adv-x="1000" />

<glyph glyph-name="note" unicode="&#xe811;" d="M1000 649c0 15-6 29-17 40l-22 22c-10 11-25 17-40 17-15 0-29-6-40-17l-105-104v111c0 11-9 20-20 20h-736c-11 0-20-9-20-20v-736c0-11 9-20 20-20h736c11 0 20 9 20 20l0 420 207 207c11 11 17 25 17 40z m-263-647h-697v696h697v-131l-365-365c-2-2-4-5-5-8l-37-111c-2-7-1-15 5-20 4-4 9-6 14-6 2 0 4 0 6 1l111 37c3 1 6 3 8 5l263 262v-360z m-288 129l-69-23 23 69 423 423 46-46-423-423z m506 506l-55-55-23 23-23 23 55 55c4 3 8 5 12 5 5 0 9-2 12-5l22-22c0 0 0 0 0 0 3-3 5-7 5-12 0-4-2-9-5-12z m-334-23h-19c-11 0-20-9-20-20 0-11 9-20 20-20h19c11 0 20 9 20 20 0 11-9 20-20 20z m-105 0h-363c-11 0-20-9-20-20 0-11 9-20 20-20h363c11 0 20 9 20 20 0 11-9 20-20 20z m-19-116h-344c-11 0-20-9-20-20 0-11 9-20 20-20h344c11 0 20 9 20 20 0 11-9 20-20 20z m-125-116h-219c-11 0-20-9-20-20 0-11 9-20 20-20h219c11 0 20 9 20 20 0 11-9 20-20 20z m-95-114h-124c-11 0-20-9-20-20 0-11 9-20 20-20h124c11 0 20 9 20 20 0 11-9 20-20 20z" horiz-adv-x="1000" />

<glyph glyph-name="drugs-1" unicode="&#xe812;" d="M822 516l-42 67c-9 13-13 29-13 45v39c9 0 16 7 16 16v150c0 10-7 17-16 17h-534c-9 0-16-7-16-17v-150c0-9 7-16 16-16v-39c0-16-4-32-13-45l-42-67c-18-30-28-64-28-99v-5-457-14c0-50 41-91 91-91h518c50 0 91 41 91 91v14 457 5c0 35-10 69-28 99z m-239-549v433h234v-67h-167v-33h167v-33h-167v-34h167v-33h-167v-33h167v-34h-167v-33h167v-33h-167v-34h167v-66h-234z m167 733h-33v117h33v-117z m-100 0v117h33v-117h-33z m-67 0v117h34v-117h-34z m-66 0v117h33v-117h-33z m-67 0v117h33v-117h-33z m-67 0v117h34v-117h-34z m-66 0v117h33v-117h-33z m-67 117h33v-117h-33v117z m17-417v-433h-84v433h84z m492-517h-518c-29 0-53 22-57 50h116v500h-115c2 23 9 45 22 65l42 67c11 19 18 41 18 63v39h466v-39c0-22 7-44 19-63l41-67c0 0 0 0 0 0 13-20 20-42 23-65h-266v-500h266c-4-28-27-50-57-50z" horiz-adv-x="1000" />

<glyph glyph-name="drugs-2" unicode="&#xe813;" d="M767 850h-534c-9 0-16-7-16-17v-200c0-9 7-16 16-16v-132-500-135h534v155 457 155c9 0 16 7 16 16v200c0 10-7 17-16 17z m-17-200h-33v167h33v-167z m-100 0v167h33v-167h-33z m-67 0v167h34v-167h-34z m-66 0v167h33v-167h-33z m-67 0v167h33v-167h-33z m-67 0v167h34v-167h-34z m-66 0v167h33v-167h-33z m-67 167h33v-167h-33v167z m17-366h33v-433h-33v433z m466-68h-166v-33h166v-33h-166v-34h166v-33h-166v-33h166v-34h-166v-33h166v-33h-166v-34h166v-66h-233v433h233v-67z m0 100h-266v-500h266v-100h-466v102h66v500h-66v132h466v-134z" horiz-adv-x="1000" />

<glyph glyph-name="drugs-3" unicode="&#xe814;" d="M931 850h-690v-241h35v-120-332c-15 2-30 3-45 3-88-1-156-43-162-98l0 0v-111c0-20 9-39 26-55 29-29 80-46 135-46 1 0 2 0 3 0 33 0 64 7 89 17h523c27 0 52 23 52 49v77 473 143h34v241z m-155-207v173h34v-173h-34z m-414 0v173h35v-173h-35z m69 173h35v-173h-35v173z m69 0h35v-173h-35v173z m69 0h34v-173h-34v173z m69 0h34v-173h-34v173z m69 0h34v-173h-34v173z m-431 0h52v-173h-52v173z m-8-825c-3 0-7-1-10-1-2-1-3-1-5-1-2 0-5 0-7-1-5 0-9 0-13 0-9 0-17 0-25 1-1 0-1 0-2 0-7 1-15 2-22 4l121 121c1 0 1-1 1-1 2 0 3-1 4-1 1-1 2-1 4-2 3-1 6-3 9-4 1-1 2-1 2-2 5-2 9-5 13-8 0 0 0 0 0 0 4-3 8-7 11-10l1-2c2-2 3-4 4-5 1-1 1-2 2-3 1-2 2-4 3-6 0-1 0-2 0-2 1-3 2-6 2-9 0 0 0 0 0 0l-1-4c-3-29-41-55-91-64 0 0 0 0-1 0z m77 142c0 0-1 0-1 1 0 0-1 0-1 0-1 1-2 1-3 2-5 3-11 5-17 8-3 1-6 2-8 3-2 0-3 1-5 2v306h35v-322z m-114-7c1 0 2 0 4 0 10 0 21-1 31-3l-118-118c-3 2-7 3-10 5-6 3-14 9-21 16 0 0-1 1-1 1 0 0-1 1-1 2-6 7-10 15-11 23l0 7c3 35 60 66 127 67z m2-242c-47 0-91 14-114 36-10 10-15 21-16 32v40c1-1 2-2 3-2 2-2 4-3 7-5 2-1 4-3 6-4 1-1 1-1 2-1 1-1 1-1 2-1 14-8 30-14 48-19 0 0 0 0 1 0 8-2 17-4 27-5 1 0 2 0 3 0 8-1 16-1 25-1 1 0 2-1 3-1 1 0 2 0 3 0 7 1 13 1 19 1 2 0 3 1 5 1 4 0 9 1 13 2 2 0 3 0 4 0 5 1 10 2 14 3 1 0 2 1 3 1 5 1 11 3 16 4 0 0 0 0 0 0 22 8 41 18 55 30 0-1 0-1 0-2 1-13 0-24 0-31l0-7c0-3 0-5-1-8 0 0 0-1 0-1-1-2-1-4-2-6-1-1-1-1-1-2-1-2-2-3-3-5-1-1-1-1-2-2-1-2-2-3-3-4-1-1-2-2-3-3-1-1-2-2-3-4-2-1-3-2-4-3-1-1-2-1-3-2-24-18-62-30-104-31z m629 501h-172v-35h172v-34h-172v-35h172v-34h-172v-35h172v-34h-172v-35h172v-34h-172v-35h172v-69h-241v448h241v-68z m0 103h-276v-517h276v-55c0-7-9-14-17-14h-471c7 7 13 16 17 25 0 0 0 0 0 1 1 3 3 7 4 11 0 1 0 2 0 3 1 4 2 8 2 13l0 0 0 0c0 0 0 0 0 0l-1 0c1 6 1 15 1 30 0 16 0 37 0 67l-3 22-1-1c0 1 0 1 0 1 0 1 0 3-1 4-1 3-2 6-3 9-1 1-1 2-1 3-2 4-4 8-7 11-1 1-1 2-2 2v386h-69v120h552v-121z m35 155h-52v173h52v-173z" horiz-adv-x="1000" />

<glyph glyph-name="drugs-4" unicode="&#xe815;" d="M667 92v450 133h-34v17h17c9 0 17 7 17 16s-8 17-17 17h-17v17h17c9 0 17 7 17 16s-8 17-17 17h-17v50h-416v-50h-17c-9 0-17-7-17-17s8-16 17-16h17v-17h-17c-9 0-17-7-17-17s8-16 17-16h17v-17h-34v-133-500h-100c-46 0-83-38-83-84s37-83 83-83h100 134 216 34 433v217h-333z m-67 0v416h33v-416h-33z m-350 600h17c9 0 16 7 16 16s-7 17-16 17h-17v17h17c9 0 16 7 16 16s-7 17-16 17h-17v17h350v-17h-17c-9 0-16-7-16-17s7-16 16-16h17v-17h-17c-9 0-16-7-16-17s7-16 16-16h17v-17h-350v17z m-33-600h133v33h-133v33h133v34h-133v33h133v33h-133v34h133v33h-133v33h133v34h-133v33h133v33h-133v50h166v-466h-66-100v50z m-134-184c-27 0-50 23-50 50s23 50 50 50h100v-100h-100z m134 0v100h100c27 0 50-22 50-50s-23-50-50-50h-100z m316 184v-184h-150c11 14 17 31 17 50s-6 36-17 50h34v534h-200v100h416v-100h-66v-450h-34z m434-184h-400v150h16v-33h34v33h33v-33h33v33h34v-33h33v33h33v-33h34v33h33v-33h33v33h34v-33h33v33h17v-150z m-634 817h-16c-10 0-17-7-17-17s7-16 17-16h16c10 0 17 7 17 16s-7 17-17 17z m0 50h-16c-10 0-17-7-17-17s7-16 17-16h16c10 0 17 7 17 16s-7 17-17 17z m67-50h-17c-9 0-16-7-16-17s7-16 16-16h17c9 0 17 7 17 16s-8 17-17 17z m0 50h-17c-9 0-16-7-16-17s7-16 16-16h17c9 0 17 7 17 16s-8 17-17 17z m67-50h-17c-9 0-17-7-17-17s8-16 17-16h17c9 0 16 7 16 16s-7 17-16 17z m0 50h-17c-9 0-17-7-17-17s8-16 17-16h17c9 0 16 7 16 16s-7 17-16 17z m66-50h-16c-9 0-17-7-17-17s8-16 17-16h16c10 0 17 7 17 16s-7 17-17 17z m0 50h-16c-9 0-17-7-17-17s8-16 17-16h16c10 0 17 7 17 16s-7 17-17 17z" horiz-adv-x="1000" />

<glyph glyph-name="ear" unicode="&#xe816;" d="M744 762c-59 62-141 92-243 88-157-6-261-54-310-142-69-125 15-272 18-278 21-37 69-49 106-28 37 21 49 68 28 105-11 20-38 87-16 127 20 36 84 57 180 61 57 2 97-11 124-39 54-58 55-173 46-260-13-124-61-236-140-323-7-7-13-11-20-11-13 0-31 16-45 29-13 12-24 22-36 25-15 4-29-4-40-10-5-3-14-7-16-6-1 0-7 3-15 27-6 22-22 40-43 49-21 9-45 8-65-2-6-3-11-9-16-20-19-41-17-89 6-130 40-70 100-157 155-170 13-3 25-4 38-4 68 0 139 40 211 119 102 112 164 254 180 412 18 172-12 300-87 381z m54-378c-15-151-75-286-171-392-77-85-151-120-218-105-33 7-81 63-133 154-18 31-20 68-5 99 1 2 2 4 2 5 12 5 24 5 36 0 12-5 21-15 25-28 8-27 19-42 33-48 17-7 33 2 45 8 6 3 13 8 17 7 3-1 14-11 20-17 18-17 41-38 68-38 0 0 1 0 2 0 15 0 30 8 42 22 84 92 136 210 149 342 10 93 8 219-55 286-34 36-83 52-149 49-112-4-182-30-208-78-29-52-2-127 16-159 12-21 5-48-16-60-21-12-48-5-60 16-3 5-77 136-18 245 43 77 138 119 282 124 92 4 166-22 217-77 69-73 95-193 79-355z m-401-117c-24-1-42-13-49-31-6-17 0-36 15-49 7-7 24-17 52-17 22 0 52 6 91 27 70 36 109 88 109 143-1 57-43 109-119 147-15 8-31 11-45 14-31 7-54 34-54 66 0 36 30 66 67 66 9 0 17 8 17 17s-8 17-17 17c-55 0-100-45-100-100 0-48 34-89 80-98 13-3 26-6 37-12 65-32 100-73 101-117 0-42-33-84-92-114-56-29-92-26-105-14-5 4-7 9-6 13 2 5 9 8 18 8 37 0 67 30 67 67s-30 67-67 67c-9 0-16-8-16-17s7-17 16-17c19 0 34-15 34-33s-15-33-34-33z" horiz-adv-x="1000" />

<glyph glyph-name="earbuds" unicode="&#xe817;" d="M577 189l324-325 76 76-328 328-72-72v172 53h18v36h-18-36v199c31 9 54 38 54 73 0 35-25 121-72 121-41 0-65-67-70-107-1 0-1 0-1 0s-1 0-1 0c-5 40-30 107-71 107s-65-67-70-107c0 0-1 0-1 0s-1 0-1 0c-5 40-29 107-71 107s-65-67-70-107c0 0-1 0-1 0s-1 0-1 0c-5 40-29 107-70 107-47 0-72-86-72-121 0-35 23-64 54-73v-199h-36-18v-36h18v-53-429-53h-18v-36h18 536 18v36h-18v53 250z m72 29l277-278-25-25-278 277 26 26z m-108-12h-143v-36h143v-36h-143v-35h143v-36h-143v-36h143v-52h-250v357h250v-55h-143v-36h143v-35z m-18 608c9 0 36-46 36-85 0-22-16-40-36-40s-36 18-36 40c0 39 28 85 36 85z m-18-158v-199h-35v223c9-12 21-20 35-24z m-71 24v-223h-36v199c14 4 27 12 36 24z m-54 134c9 0 36-46 36-85 0-22-16-40-36-40s-35 18-35 40c0 39 27 85 35 85z m-18-158v-199h-35v223c9-12 21-20 35-24z m-71 24v-223h-36v199c14 4 27 12 36 24z m-54 134c9 0 36-46 36-85 0-22-16-40-36-40s-35 18-35 40c0 39 27 85 35 85z m-17-158v-199h-36v223c9-12 21-20 36-24z m-161 73c0 39 27 85 36 85s35-46 35-85c0-22-16-40-35-40s-36 18-36 40z m53-73c15 4 27 12 36 24v-223h-36v199z m-35-324h35v-357h-35v357z m464-446h-464v53h71v429h-71v53h464v-53h-286v-429h286v-53z" horiz-adv-x="1000" />

<glyph glyph-name="edema" unicode="&#xe818;" d="M201 499c-3 2-9 12 9 59 11 29-2 55-30 66-28 10-63 1-76-33-30-80-16-148 39-186h0c9-7 20-11 30-11 15 0 30 8 41 23 17 24 17 61-13 82z m-15-62c-4-7-12-13-24-5h0c-58 41-38 117-26 147 6 16 22 17 32 13 7-2 15-9 10-22-9-23-28-76 3-99 15-10 11-26 5-34z m801-480l-252 279c13 17 20 38 20 59 0 27-11 52-30 71l0 1c-32 31-49 77-46 125 5 96-31 191-99 259-68 68-162 104-258 99-98-6-186-51-247-128-96-121-98-297-3-418 70-89 177-138 289-131 47 3 92-14 125-47 19-19 45-29 70-29 16 0 31 4 45 11l288-246 2-1c11-7 24-11 37-11 18 0 36 7 50 21 0 0 0 0 0 0 23 23 27 58 9 86z m-478 194c-36 36-86 56-138 56-4 0-8 0-12 0-101-6-198 38-260 118-85 109-84 267 2 375 56 70 135 111 223 116 86 4 171-28 232-89 62-61 94-146 89-233-3-58 17-113 56-151l0-1c13-12 20-29 20-47 0-17-7-34-20-46l-98-99c-26-25-68-25-94 1z m445-257l0 0c-12-11-30-13-44-5l-281 240 58 57 25 25 247-273c8-14 6-32-5-44z" horiz-adv-x="1000" />

<glyph glyph-name="electric-toothbrush" unicode="&#xe819;" d="M980 57l-374 374c-21 21-48 32-77 32-14 0-27-3-40-8l-231 214c5 15 9 31 9 48 0 73-60 133-134 133s-133-60-133-133 60-134 133-134c15 0 29 3 42 7l220-229c-16-39-8-85 24-117l374-374c13-13 30-20 48-20s36 7 49 20l90 90c27 27 27 70 0 97z m-398 351l325-325-140-140-30 30 26 25c38 38 38 99 0 136l-182 182c-37 38-98 38-136 0l-20-20c-7 19-6 41 4 60 0 0 0 0 1 0 1 4 3 7 5 9 2 3 4 6 7 9l34 34c3 3 6 5 9 7 2 2 5 4 9 6 0 0 0 0 1 0 10 6 22 9 34 9 20 0 39-8 53-22z m-55-225c22 12 51 8 69-10 11-11 17-25 17-41 0-10-3-19-7-27l-79 78z m92 14c-17 17-40 27-64 27-19 0-37-6-52-17l-60 60 26 26c24 24 64 24 88 0l183-183c24-24 24-64 0-88l-26-26-84 84c10 15 16 33 16 52 0 25-9 48-27 65z m-503 421c0 9-7 15-16 15-5 0-9-2-12-5-5 2-9 5-13 8 5 3 8 8 8 14 0 9-7 17-16 17-6 0-12-4-15-9-3 4-5 9-8 13 4 3 6 7 6 12 0 9-7 16-15 17-1 5-2 11-2 17s1 11 2 17c8 1 15 7 15 16 0 5-2 9-6 12 3 5 5 9 8 13 3-5 9-8 15-8 9 0 16 7 16 16 0 7-3 12-8 15 4 3 8 5 13 8 3-4 7-6 12-6 9 0 16 7 16 15 6 1 12 2 17 2s12-1 17-2c1-8 8-15 17-15 5 0 9 2 12 6 4-3 9-5 13-8-5-3-9-8-9-15 0-9 8-16 17-16 6 0 11 3 14 8 3-4 6-8 8-13-3-3-5-7-5-12 0-9 6-15 15-16 1-6 1-11 1-17s0-12-1-17c-9-1-15-8-15-17 0-4 2-9 5-12-2-4-5-9-8-13-3 5-8 9-14 9-9 0-17-8-17-17 0-6 4-11 9-14-1-1-2-2-3-3 0 0-1 0-1 0-3-2-6-3-9-5-3 3-8 5-12 5-9 0-16-6-17-15-5-1-11-1-17-1s-11 0-17 1z m91-12c0 0 0 0 0 0 6 4 12 9 18 14 0 0 1 1 1 1 5 5 10 11 15 17 0 0 0 1 1 1l217-202c-1-1-2-2-4-3-1-1-2-2-2-3l-34-33c-1-1-2-2-3-3-1-1-2-3-4-4l-205 215z m749-622l-90-90c-13-14-36-14-50 0l-25 25 140 140 25-25c14-14 14-37 0-50z" horiz-adv-x="1000" />

<glyph glyph-name="epidermis" unicode="&#xe81a;" d="M438 90c-8-20-6-43 7-62 12-18 33-29 55-29s43 11 55 29c13 19 15 42 7 62l-45 113v514c0 9-8 16-17 16s-17-7-17-16v-514l-45-113z m90-43c-7-9-17-15-28-15s-21 6-28 15c-6 9-7 20-3 31l31 77 31-77c4-11 3-22-3-31z m472 286h0c0 6 0 11 0 17 0 276-224 500-500 500s-500-224-500-500c0-6 0-11 0-17h0l1-7c0-3 0-6 0-8l0-2c0-1 0-1 0-2 1-7 2-15 3-22 0-1 0-1 0-2 1-7 2-15 3-22 0-1 0-1 0-1 2-13 5-26 8-38l0 0 3-12c0-1 1-2 1-3 3-12 7-25 12-37 0 0 0-1 0-1 4-11 9-22 14-33 1-2 2-4 3-6 5-11 10-21 16-31 1-2 3-5 4-8 6-9 12-19 18-28 1-2 3-4 4-6 6-8 12-16 19-24 1-2 2-4 4-6 7-9 15-17 23-26 1-1 3-3 4-4 9-9 17-18 27-26 0 0 0 0 0 0 60-54 133-94 214-114 0 0 1 0 1 0 7-2 14-3 22-5 1 0 2 0 4 0 2-1 5-1 8-2 1 0 2 0 2 0 3-1 6-1 9-2 2 0 5 0 7-1 6 0 11-1 17-2 2 0 3 0 5 0 2 0 4 0 6 0 0-1 1-1 1-1 4 0 8 0 12 0 8-1 17-1 25-1s17 0 25 1c4 0 8 0 12 0 1 0 1 1 2 1 2 0 5 0 7 0 1 0 2 0 3 0 6 1 11 2 17 2 2 1 5 1 7 1 3 1 5 1 8 2 4 0 8 1 11 2 0 0 0 0 0 0 2 0 3 0 5 0 7 2 14 3 21 5 0 0 1 0 1 0 7 2 13 4 20 6 5 1 10 3 15 4 128 41 234 132 294 254 2 5 5 10 7 15 2 5 4 10 6 14 5 11 9 21 12 32 1 2 2 4 2 6 5 13 8 26 11 38 0 1 0 1 0 2l3 9 0 0c1 7 3 15 4 23 0 0 0 0 0 1 1 7 2 15 3 22 0 1 0 1 1 2 0 7 1 15 2 22 0 1 0 1 0 2l0 2c0 2 0 5 0 8l1 7z m-567-80l-10-24c-15-2-31 3-42 14l-9 8c-33 33-86 33-119 0l-8-8c-20-20-53-20-72 0l-9 9c-33 32-86 32-119 0l-1-1c-3 16-6 32-8 49h356c23 0 41-19 41-41v-6z m32-368c-2 0-4 0-6 0-11 1-21 2-32 4-2 0-4 1-5 1-11 2-22 4-33 7-1 0-2 0-3 1-11 2-22 6-33 9 0 0-1 0-1 1-11 3-21 7-31 11-2 1-4 2-6 3-9 4-18 8-28 13-2 1-4 2-7 4-8 4-17 9-25 14-3 2-5 4-8 5-6 4-12 9-18 13-4 3-8 6-12 9-6 4-11 9-17 13-4 3-7 6-11 10-6 5-11 10-17 16-4 4-8 8-12 12-3 3-5 6-8 9-6 7-12 14-17 21-3 3-5 6-8 9-5 7-10 14-15 21-2 4-5 8-7 12-3 4-6 9-9 14-4 7-8 14-11 21-2 4-4 8-6 12-4 9-8 17-11 25-2 3-3 6-4 9-3 9-6 18-9 26 0 2-1 3-1 4 2 2 4 4 6 5l8 9c20 19 53 19 72 0l9-9c16-15 37-24 60-24s43 9 59 24l9 9c20 20 52 20 72 0l8-9c14-13 32-22 51-24l-32-80c-16-41-11-88 14-124 24-37 66-59 110-59s86 22 110 59c25 37 30 83 14 124l0 0c0 0 0 0 0 0l0 1-35 87c31-15 70-10 96 16 20 20 52 20 72 0 16-15 37-24 60-24s43 9 59 24l9 9c18 18 47 20 67 5-1-2-1-3-2-5-2-9-5-18-8-26-2-6-4-11-6-17-2-5-4-10-6-15-54-129-164-228-299-268-1 0-2 0-2-1-1 0-1 0-1 0-6-1-12-3-18-5-1 0-1 0-2 0-8-2-15-3-23-5-1 0-1 0-2 0-4-1-7-1-11-2-9-1-19-3-29-4-3 0-5 0-8 0-11-1-23-2-35-2-12 0-23 1-35 2z m102 373v1c0 22 18 41 41 41h356c-1-11-3-22-5-33-32 16-71 11-98-15l-8-9c-19-19-53-19-72 0-33 33-87 33-120 0-20-20-52-20-72 0l-18 18-4-3z m-534 92c0 257 210 467 467 467s467-210 467-467c0-6-1-11-1-17h-358c-41 0-75-33-75-74v-12l60-144c12-31 8-66-10-93-19-28-50-44-83-44s-64 16-83 44c-18 27-22 62-10 93l60 144v12c0 41-34 74-75 74h-358c0 6-1 11-1 17z" horiz-adv-x="1000" />

<glyph glyph-name="extraction" unicode="&#xe81b;" d="M983 686h-144l-69-164c6 48 6 96-6 141-9 35-35 67-74 92-48 31-115 34-175 9l-3-1c0 0-1 0-2-1-5-1-9-3-12-4-8-3-8-3-22 1-47 14-107 27-153 11-88-31-114-128-102-210 2-13 4-26 6-39 2-16 5-32 7-48l-90 213h-127c-9 0-17-8-17-17s8-16 17-16h105l96-228c-40 28-89 44-139 44-1 0-1 0-1 0-20 0-38-9-49-25s-15-37-9-56l94-292c34-106 132-177 243-177h286c111 0 209 71 243 177l94 292c6 19 3 40-9 56-11 16-30 25-50 25h-37c-42 0-83-14-116-38l93 221h122c10 0 17 8 17 17s-7 17-17 17z m-649 53c11 4 24 5 37 5 32 0 68-9 96-17 22-7 27-7 43 0 3 1 6 2 11 4 1 0 3 1 5 2l1 0c51 21 106 19 145-6 32-20 53-46 60-72 22-82-2-180-23-267-2-8-4-16-6-24l-2-5c-1-3-1-5-1-8 0-3-1-7-2-10l-3-13 0 0c-3-16-7-32-11-48-6-22-13-42-24-62-8-12-12-14-12-14-1 1-13 5-33 64-2 9-5 18-7 28-10 37-21 80-60 103-43 26-92 10-127-41-19-28-29-58-39-87-4-11-8-23-12-34-6-15-12-27-22-34-3 3-11 12-23 42l-2 3c0 2-1 4-2 6l0 0c-2 6-4 12-6 17-1 1-1 2-1 3-2 6-5 12-7 19 0 1 0 2-1 3-4 13-8 27-12 42l0 0c-16 61-25 125-34 188-2 13-4 26-6 39-10 69 11 149 80 174z m304-566c-31-33-74-54-122-54h-32c-48 0-91 21-122 54 23 12 33 36 39 52 4 12 8 23 12 35 10 29 19 55 35 79 12 17 44 55 83 31 27-16 35-48 44-83 3-10 6-20 9-29 12-38 28-77 54-85z m246 263h37c10 0 18-4 23-12 6-7 7-17 4-25l-94-293c-30-92-114-154-211-154h-286c-97 0-181 62-211 154l-94 293c-3 8-2 18 4 25 5 8 13 12 22 12 0 0 1 0 1 0 76 0 146-41 183-108 4-14 8-28 13-42 0-1 0-3 1-4 4-13 9-26 14-39 19-91 101-157 194-157h32c95 0 177 68 195 161l4 23c1 0 1 0 1 1 2 8 4 16 6 24 0 0 0 1 0 2 2 7 4 15 5 23l2 6 1 4c24 63 86 106 154 106z" horiz-adv-x="1000" />

<glyph glyph-name="eye" unicode="&#xe81c;" d="M897 457c-40 40-79 72-120 96-85 51-181 79-280 82-3 0-6 0-10 0-1 0-1 0-2 0-1 0-2 0-3 0-140 0-275-51-382-145l-62-54c-24-22-38-52-38-85 0-33 14-63 38-85l63-55c107-95 243-146 383-146 0 0 1 0 2 0 0 0 1 0 1 0 2 0 4 0 5 0 92 1 183 25 264 69 51 27 99 65 145 112l99 104-103 107z m-158-107c0-137-110-249-247-252-2 0-4 0-6 0-139 1-251 114-251 252 0 138 112 251 250 252 4 0 8 0 12-1 134-5 242-116 242-251z m-616-114l-63 55c-17 15-26 37-26 60 0 23 9 45 26 59l62 55c56 49 120 85 188 108-66-52-108-133-108-223 0-90 41-170 106-222-67 23-130 60-185 108z m754 34c-44-45-89-81-137-107-22-12-45-22-69-31 62 53 101 131 101 218 0 87-39 164-100 217 31-12 60-26 88-42 39-24 75-53 112-92l81-83-76-80z m-762 149l-11 8-33-29c-13-12-21-29-21-47s8-35 21-47l34-30 11 8c22 16 35 41 35 68 0 28-13 53-36 69z m-9-101l-12 11c-7 6-10 13-10 22s4 16 10 22l11 10c8-9 13-21 13-33 0-12-5-23-12-32z m364 166v-18c-3 0-6-1-9-2l-7 17c-3 9-13 13-22 10-8-3-13-13-9-22l6-17c-4-2-8-5-12-8l-13 13c-7 6-17 6-24 0s-6-17 0-24l13-13c-2-2-4-5-5-8l-17 8c-9 3-18 0-22-9-4-8 0-18 8-22l17-7c-1-5-2-10-3-15h-18c-10 0-17-8-17-17s7-17 17-17h18c0-3 1-6 2-9l-17-7c-9-3-13-13-10-22 3-6 9-10 16-10 2 0 4 0 6 1l17 6c2-4 5-8 8-12l-13-13c-6-7-6-17 0-24 3-3 8-5 12-5s9 2 12 5l13 13c2-2 5-4 8-5l-8-17c-3-9 0-18 9-22 2-1 4-2 7-2 6 0 12 4 15 10l7 17c5-1 10-2 15-3v-18c0-10 8-17 17-17s17 7 17 17v18c3 0 6 1 9 2l7-17c2-7 9-11 16-11 2 0 4 0 6 1 8 3 13 13 9 22l-6 17c4 2 8 5 12 8l13-13c3-3 8-5 12-5s9 2 12 5c6 7 6 17 0 24l-13 13c2 2 4 5 5 8l17-8c2-1 5-1 7-1 6 0 12 4 15 10 4 8 0 18-8 22l-17 7c1 5 2 10 3 15h18c10 0 17 8 17 17s-7 17-17 17h-18c0 3-1 6-2 9l17 7c9 3 13 13 10 22-3 8-13 13-22 9l-17-6c-2 4-5 8-8 12l13 13c6 7 6 17 0 24s-17 6-24 0l-13-13c-2 2-5 4-8 6l8 16c3 9 0 19-9 22-8 4-18 0-22-8l-7-17c-5 1-10 2-15 3v18c0 10-8 17-17 17s-17-7-17-17z m101-134c0-46-38-84-84-84s-84 38-84 84 38 84 84 84 84-38 84-84z" horiz-adv-x="1000" />

<glyph glyph-name="eye-1" unicode="&#xe81d;" d="M983 317h-68l-1-15c-25-201-203-352-414-352-67 0-114 15-145 46-47 47-55 132-55 232 1 24 0 51 0 82 0 13 0 26 0 40 0 14 0 28 0 42 1 31 1 59 0 83 0 99 8 182 55 229 31 31 78 46 145 46 211 0 389-151 414-352l1-15h68c10 0 17 8 17 17s-7 17-17 17h-38c-34 210-222 366-445 366-163 0-313-62-404-168-3 1-6 2-10 2-59 0-86-139-86-267s27-267 86-267c4 0 7 1 10 2 91-106 241-168 404-168 223 0 411 156 445 366h38c10 0 17 8 17 17s-7 17-17 17z m-950 33c0 150 35 233 54 233l0-1c15-15 14-93 13-169 0-20 0-41 0-63s0-43 0-63c1-21 1-43 1-63-1-52-3-96-15-107-18 0-53 82-53 233z m87-243c6 11 9 26 11 45 0 1 0 1 0 1 2 19 3 43 3 71 0 0 0 0 0 0 0 19 0 40 0 63 0 20-1 41-1 63s1 43 1 63c0 23 0 44 0 63 0 0 0 0 0 0 0 29-1 52-3 71 0 0 0 1 0 1-2 19-6 34-11 45 52 60 125 105 208 131-37-39-52-96-58-163-6 4-13 6-20 6-57 0-100-93-100-217s43-217 100-217c7 0 14 2 20 6 6-67 21-124 58-163-83 26-156 71-208 131z m146 298c1-18 1-36 1-55s0-37-1-55c0-22 0-44 0-66-1-30-4-53-12-61-1-1-2-1-4-1-31 0-67 78-67 183s36 183 67 183c2 0 3 0 4-1 8-8 11-30 12-58 0-23 0-46 0-69z m717-38h-93l-273 273v60c0 9-8 17-17 17s-17-8-17-17v-50h-50c-9 0-16-7-16-17s7-16 16-16h60l250-250h-86l-120 120c-1 1-2 1-4 2v61c0 9-7 17-16 17s-17-8-17-17v-50h-50c-9 0-17-7-17-17s8-16 17-16h61c1-1 1-3 2-4l97-96h-27-143l-45 45c-6 6-17 6-23 0s-7-17 0-24l38-38-38-38c-7-7-7-17 0-24 3-3 7-5 11-5s9 2 12 5l45 45h143 27l-100-100h-60c-9 0-17-7-17-16s8-17 17-17h50v-50c0-9 8-17 17-17s16 8 16 17v60l124 123h86l-250-250h-60c-9 0-16-7-16-16s7-17 16-17h50v-50c0-9 8-17 17-17s17 8 17 17v60l273 273h93c10 0 17 8 17 17s-7 17-17 17z" horiz-adv-x="1000" />

<glyph glyph-name="eye-drops" unicode="&#xe81e;" d="M687 388c-2 2-4 5-4 7v105h-16v100h-50c-19 0-34 15-34 33v134c0 46-37 83-83 83s-83-37-83-83v-134c0-18-15-33-34-33h-50v-100h-16v-105c0-2-1-5-3-7-42-37-64-86-64-142v-13-266-57c0-33 27-60 60-60h380c33 0 60 27 60 60v57 266 13c0 56-22 105-63 142z m-37 29h-300v50h33v-17c0-9 8-17 17-17s17 8 17 17v17h33v-17c0-9 8-17 17-17s16 8 16 17v17h34v-17c0-9 7-17 16-17s17 8 17 17v17h33v-17c0-9 8-17 17-17s17 8 17 17v17h33v-50z m-200 216v134c0 27 22 50 50 50s50-23 50-50v-134c0-12 3-23 9-33h-118c6 10 9 21 9 33z m-83-66h16 234 16v-67h-266v67z m-84-367h100v-200h-100v200z m434-33h-134v-34h134v-16h-134v-34h134v-16h-134v-34h134v-33h-217v200h217v-33z m-250 66v-266h250v-57c0-15-12-27-27-27h-380c-15 0-27 12-27 27v57h134v266h-134v13c0 46 19 87 53 118 6 5 10 12 12 19h304c2-7 6-14 12-19 35-31 53-72 53-118v-13h-250z" horiz-adv-x="1000" />

<glyph glyph-name="eye-drops-1" unicode="&#xe81f;" d="M662 467h-45v16h16c10 0 17 8 17 17s-7 17-17 17h-16v16h16v198c0 10-8 19-19 19-21 0-40 13-46 33l-23 67h-90l-22-67c-7-20-26-33-47-33-11 0-19-9-19-19v-198h16v-16h-16c-10 0-17-8-17-17s7-17 17-17h16v-16h-45c-21 0-38-18-38-39v-78-400-62c0-21 17-38 38-38h324c21 0 38 17 38 38v62 400 78c0 21-17 39-38 39z m-262 251c30 5 54 26 64 55l15 44h42l15-44c10-29 35-50 64-55v-151h-17v133c0 9-7 17-16 17s-17-8-17-17v-133h-33v133c0 9-8 17-17 17s-17-8-17-17v-133h-33v133c0 9-7 17-17 17s-16-8-16-17v-133h-17v151z m17-185h166v-16h-166v16z m0-50h166v-16h-166v16z m-84-166h50v-334h-50v334z m334-50h-117v-34h117v-33h-117v-33h117v-34h-117v-33h117v-33h-117v-34h117v-50h-167v334h167v-50z m-200 83v-400h200v-62c0-2-3-5-5-5h-324c-2 0-5 3-5 5v62h84v400h-84v78c0 3 3 5 5 5h45 234 45c2 0 5-2 5-5v-78h-200z" horiz-adv-x="1000" />

<glyph glyph-name="fat" unicode="&#xe820;" d="M500 433c28 0 50 23 50 50s-22 50-50 50-50-22-50-50 22-50 50-50z m0 67c9 0 17-7 17-17s-8-16-17-16-17 7-17 16 8 17 17 17z m500-150c0 91-25 177-68 251l0 0-2 4c-1 1-1 2-2 3-3 4-5 8-8 12-4 7-9 14-13 20-3 4-6 8-8 11-2 2-3 4-4 5l-2 3c-6 7-12 15-19 23-11 12-22 23-33 33-2 2-4 4-6 6-2 2-3 3-5 4l-3 3c-2 2-5 4-7 6-2 1-4 3-6 4-3 3-5 5-9 8l-2 2c-1 1-3 1-4 3 0 0-1 0-2 1-9 7-19 14-29 20-4 2-7 5-11 7-1 0-2 1-4 2l-5 3c-7 4-14 8-23 12l-4 2c-1 1-2 1-3 2-7 3-13 6-20 9-3 1-5 2-8 3-7 3-14 6-21 9-1 0-2 0-3 1l-7 2c-1 0-2 1-4 1-5 2-9 3-14 5-2 0-3 1-4 1l-7 2c-1 0-2 0-3 1-2 0-4 1-5 1-7 2-13 3-20 5 0 0-1 0-2 0 0 0 0 0 0 0-1 0-2 0-3 1-9 1-17 3-26 4 0 0 0 0 0 0-3 0-6 1-9 1 0 0 0 0 0 0-8 1-15 2-22 2 0 0 0 0 0 0l-9 1c0 0 0 0 0 0-11 1-21 1-31 1-10 0-20 0-30-1-1 0-1 0-1 0l-9-1c0 0 0 0 0 0-7 0-14-1-21-2-1 0-1 0-1 0l-9-1c0 0-1 0-1 0-3-1-6-1-9-2-6-1-12-2-19-3-1 0-2 0-3-1-8-1-17-3-25-6 0 0-1 0-1 0l-8-2c-1 0-2-1-3-1-5-2-10-3-15-5-1 0-3-1-4-1l-7-2c-1-1-2-1-3-1-7-3-14-6-22-9-2-1-4-2-7-3-7-3-13-6-20-9-1-1-2-1-3-2l-5-2c-2-1-5-3-7-4-3-1-6-3-9-5-2-1-4-2-7-3l-4-3c-1-1-3-1-4-2-4-3-7-5-11-7-10-7-20-13-29-20-1-1-1-1-2-2-1-1-3-1-4-3l-3-2c-3-2-5-4-8-6-2-2-4-4-6-6-3-1-5-3-7-5l-3-3c-1-1-3-2-4-4-3-2-6-4-8-7-7-7-15-14-22-21-2-3-4-5-7-8-1-1-2-2-3-4-7-7-13-15-20-23l-1-2c-1-1-2-3-3-4-3-4-6-8-9-12-4-6-8-11-12-17-3-5-6-10-9-15-1-1-1-2-2-3l-2-4 0 0c-43-74-68-160-68-251 0-148 65-281 167-372v-1l6-5c3-2 5-4 8-6 1-1 2-2 2-2 6-5 11-9 16-13 1-1 2-2 4-2 5-4 10-8 16-12 1-1 2-1 3-2 6-4 11-7 17-11 1-1 2-1 3-2 2-1 3-2 5-3 3-2 6-3 8-5 4-2 8-4 11-6 4-2 9-4 13-6 4-2 7-4 11-5 4-2 9-4 13-6 4-2 7-3 11-5 4-1 9-3 14-5 3-2 7-3 10-4 8-2 16-5 23-7 6-2 11-3 17-5 2 0 5-1 8-2 7-1 13-2 19-4 3 0 5-1 7-1 7-1 15-2 22-3 2-1 3-1 5-1 8-1 17-2 26-2 0 0 0 0 1-1l2 0c3 0 5 0 8 0l12-1 0 0c4 0 8 0 12 0 4 0 8 0 12 1l0-1 12 1c3 0 6 0 8 0l3 1c0 0 0 0 0 0 9 0 18 1 27 2 1 0 2 1 4 1 7 1 15 2 22 3 2 1 5 1 7 1 6 2 12 3 19 4 3 1 6 2 9 2 5 2 10 3 16 5 8 2 15 5 23 7 3 1 7 3 10 4 5 2 10 4 15 5 3 2 6 3 10 5 4 2 9 4 13 6 4 1 8 3 11 5 4 2 9 4 13 7 4 1 7 3 11 5 3 2 6 4 8 5 2 1 3 2 5 3 1 1 2 2 3 2 6 4 12 7 17 11 1 1 2 2 4 2 5 4 10 8 16 12 1 1 2 1 3 2 5 4 10 8 16 13 0 0 1 1 2 2 3 2 6 4 9 7l5 5v0c103 92 167 225 167 372z m-145-73c-115 26-243 40-372 40-144 0-217-16-335-47-33 94-51 211-47 321 2 5 5 9 8 14 2 2 3 4 5 6 2 4 5 8 8 12 2 3 4 6 6 9 9 11 17 21 27 31 1 2 2 3 3 4 7 8 15 16 23 23 2 2 5 4 7 7 4 3 8 7 13 11 2 2 4 3 6 5 5 4 9 7 14 11 1 0 1 1 2 1 9 7 17 13 26 18 4 3 8 5 11 7 5 3 9 5 14 8 3 2 6 3 9 5 5 2 9 5 14 7 6 3 13 6 19 9 2 1 4 1 6 2 7 3 14 6 21 8 4 2 8 3 12 5 5 1 10 3 15 4 3 1 7 2 11 3 2 1 4 1 6 2 6 1 12 3 18 4 1 0 1 0 1 0 2 0 3 1 4 1 8 1 15 3 23 4 3 0 6 1 10 1 6 1 13 2 20 2l3 0c2 0 4 1 6 1 18 1 38 1 57 0 2 0 4-1 7-1l1 0c7 0 14-1 21-2 0 0 1 0 1 0 2 0 5-1 7-1 8-1 15-2 23-4 3-1 7-1 10-2 7-1 14-3 20-5 5-1 9-2 14-4 3-1 7-2 10-3 5-1 10-3 15-5 6-2 13-5 19-7 3-1 6-3 8-4 6-2 12-5 18-8 13-6 25-13 37-20 3-2 7-4 10-6 8-6 16-11 24-17 2-1 4-2 5-3 5-4 9-7 14-11 2-2 4-4 6-5 5-4 9-8 13-11 3-3 5-5 8-8 6-6 13-12 19-18 2-3 5-5 7-8 4-4 7-8 11-12 1-3 3-5 5-7 3-4 7-8 10-13 2-2 4-5 6-8 3-4 6-8 8-12 2-2 3-4 5-6 3-5 6-9 8-14 4-108-13-221-44-314z m-57-286c-8-6-16-13-25-19-2-2-5-4-8-5-8-6-17-12-26-17-4-3-8-5-12-7-2-2-5-3-7-4-4-3-9-5-14-7-2-1-4-2-7-4-4-2-9-4-14-6-2-1-4-2-7-3-4-2-9-4-14-6-3-1-5-1-7-2-5-2-10-4-15-5-3-1-6-2-8-3-5-1-9-2-13-3-4-2-8-2-12-3-3-1-6-2-10-3-5-1-10-2-16-3-2 0-4-1-6-1-6-1-13-2-20-3-1 0-1 0-2 0l11 43c2 3 3 5 5 7 1 2 3 4 4 7 2 3 5 6 7 9 1 2 3 4 4 6 3 3 6 6 8 10 2 1 3 3 4 4 4 4 7 8 11 12 1 1 1 1 2 2 5 4 9 9 14 13 1 1 2 2 3 3 4 3 7 6 11 9 2 1 4 3 5 4 3 3 7 5 10 7 2 2 4 3 6 4 3 3 6 5 9 7 3 1 5 2 7 4 3 1 6 3 9 5 3 1 5 3 7 4 4 1 7 3 10 4 2 2 5 3 7 4 3 1 7 3 10 4 2 1 5 2 8 3 3 1 6 2 9 4 3 0 6 1 8 2 4 1 7 2 10 3 3 1 6 2 8 2 4 1 7 2 11 3 2 0 5 1 8 1 3 1 7 2 11 2 2 1 5 1 7 1 1 1 1 1 1 1v-88c-1-1-1-1-2-2z m-353-104c-8 1-15 2-22 3-2 0-4 1-5 1-6 1-12 2-17 3-3 1-6 2-10 2-4 1-8 2-12 4-4 1-8 2-12 3-3 1-6 2-9 3-5 1-10 3-14 5-3 0-5 1-8 2-5 2-9 4-14 6-2 1-5 2-7 3-5 2-10 4-14 6-3 1-5 3-7 4-5 2-9 4-14 7-2 1-4 2-7 4-4 2-8 4-12 7-9 5-17 11-26 16-3 2-5 4-8 6-8 6-17 12-25 19 0 1-1 1-2 2v88c1-1 1-1 1-1 3 0 6 0 8-1 4 0 7-1 11-2 3 0 5-1 8-1 4-1 7-2 10-3 3 0 6-1 9-2 3-1 6-2 10-3 2-1 5-2 8-3 3-1 6-2 9-3 3-1 6-2 8-3 3-2 7-3 10-4 2-1 5-3 7-4 3-1 6-3 10-5 2-1 4-2 7-3 3-2 6-4 9-6 2-1 5-2 7-4 3-2 6-4 9-6 2-1 4-3 6-4 3-3 6-5 9-7 2-2 4-3 6-5 3-2 6-5 9-7 2-2 4-3 6-5 3-3 6-6 9-9 1-1 3-2 4-4 4-3 7-7 10-11 1-1 2-2 3-3 8-9 16-19 24-30 0-1 1-2 2-4 2-3 5-7 7-11l9-40c0 0 0 0 0 0z m16 63c-1 2-2 4-3 5-2 3-4 6-6 9-2 3-4 6-7 9-2 2-4 5-6 7-2 3-4 6-7 9-2 3-4 5-6 7-3 3-5 6-8 9-2 2-4 4-6 6-3 4-7 7-10 10-2 1-3 3-5 5-5 4-10 8-15 12 0 1 0 1-1 1-5 4-11 8-16 12-2 1-4 3-6 4-3 2-7 5-11 8-3 1-5 2-7 4-4 2-7 4-11 6-3 1-5 2-8 4-3 2-7 3-10 5-3 1-6 3-8 4-4 1-8 3-11 4-3 2-6 3-9 4-3 1-7 2-11 4-3 1-5 2-8 2-4 2-8 3-12 4-2 0-5 1-8 2-4 1-8 2-12 3-3 0-6 1-9 1-4 1-8 2-12 2-3 1-5 1-8 2-1 0-2 0-4 0v20c0 5 0 10-1 15l27-14c3-1 5-1 8-1 6 0 12 3 15 9 4 8 0 18-8 22l-37 19 37 18c8 4 12 14 8 22-4 9-14 12-23 8l-52-26c0 1-1 2-1 4-5 9-9 18-13 28 113 30 185 46 323 46 125 0 249-14 360-38-2-6-4-12-7-17 0-1 0-1 0-2-2-4-4-9-6-13-2-3-3-5-4-8l-52 26c-8 4-18 1-22-8-4-8-1-18 7-22l37-18-37-19c-8-4-11-14-7-22 3-6 9-9 15-9 2 0 5 0 7 1l27 14c0-5-1-10-1-15l0-20c-1 0-2 0-4 0-2-1-5-1-8-2-4 0-8-1-12-2-3 0-6-1-8-1-4-1-9-2-13-3-2-1-5-2-8-2-4-1-8-2-12-4-2-1-5-1-8-2-4-2-7-3-11-4-3-1-5-2-8-3-4-2-8-4-11-5-3-1-6-3-8-4-4-2-8-3-11-5-3-2-5-3-7-4-4-2-8-4-12-7-2-1-4-2-6-3-4-3-8-6-12-9-2-1-4-2-5-3-6-4-11-8-17-12 0 0 0 0 0 0-5-5-11-9-16-13-1-2-3-4-5-5-3-3-6-6-10-10-2-2-4-4-6-6-2-3-5-6-8-9-2-2-4-4-6-7-2-3-5-6-7-9-2-2-4-5-6-7-1-2-3-4-4-6-1-1-2-2-3-3-1-3-3-6-5-9-1-1-3-3-4-5h-78z m-427 400c0 62 12 121 34 175 5-127 34-252 81-343 3-7 7-13 10-19 5-9 8-19 8-29v-17-34-59c-82 84-133 199-133 326z m466-466c-7 0-13 0-20 0l-7 33h48 8l-9-33c-6 0-13 0-20 0z m333 199v34 17c0 10 3 20 8 29 2 4 4 8 6 11 0 1 1 2 1 2 0 0 0 1 1 1 48 92 79 219 83 348 22-54 35-113 35-175 0-127-51-242-134-326v59z" horiz-adv-x="1000" />

<glyph glyph-name="femur" unicode="&#xe821;" d="M1000 350c0 242-172 444-400 490v0l-14 3c0 0 0 0 0 0-14 2-28 4-42 5-1 0-2 0-3 0-13 1-27 2-41 2s-28-1-41-2c-1 0-2 0-3 0-14-1-28-3-41-5-1 0-1 0-1-1l-14-2v0c-228-46-400-248-400-490 0-242 173-444 401-490v0l14-3c0 0 0 0 0 0 14-2 27-4 41-5 1 0 3 0 4 0 13-1 27-2 40-2 8 0 15 0 23 1 5 0 9 0 13 0 3 1 6 1 9 1 6 1 11 1 17 2 2 0 3 0 4 0 7 1 13 2 19 3 0 0 1 0 1 0l14 3v0c228 46 400 249 400 490z m-464 465c10-1 20-2 31-3v-45c0-62 26-124 70-167 20-20 31-47 30-76-3-46-39-85-83-90-17-2-35 1-51 9-10 5-22 8-33 8s-23-3-33-8c-16-8-33-11-51-9-44 5-80 44-82 90-2 29 9 56 29 76 45 44 70 101 70 162v50c11 1 21 2 31 3 2 0 3 0 5 1 21 1 41 1 62 0 2-1 3-1 5-1z m-72-930c-10 1-20 2-30 3v66c0 61-25 118-71 163-20 19-31 47-29 76 2 46 38 85 82 90 17 2 35-1 51-9 21-10 45-10 66 0 16 8 34 11 51 9 44-5 80-44 83-90 1-29-10-57-30-76-45-44-70-102-70-163v-66c-10-1-21-2-31-3-1 0-3 0-5-1-10 0-20-1-30-1 0 0-1 0-1 0-10 0-20 1-30 1-2 0-4 1-6 1z m136 9v60c0 52 21 101 60 139 28 26 42 63 40 102-4 62-52 114-112 121-24 3-48-1-69-12-12-6-26-6-37 0-22 10-46 15-70 12-60-7-108-59-112-121-2-39 12-76 40-102 39-38 61-87 61-139v-60c-210 46-368 233-368 456 0 223 158 410 367 456v-44c0-51-21-100-60-138-27-26-42-63-40-102 4-62 52-114 112-121 24-3 48 1 70 12 11 6 25 6 37 0 17-9 35-13 54-13 5 0 10 0 15 1 60 7 108 59 112 121 2 38-12 76-40 102-37 36-60 90-60 143v39c209-46 367-233 367-456s-158-410-367-456z" horiz-adv-x="1000" />

<glyph glyph-name="finger" unicode="&#xe822;" d="M812 583h-278c27 18 49 45 49 84v16h-314c-31 0-62-5-91-16-107-38-178-140-178-253v-197c0-110 90-200 201-200h307c41 0 75 33 75 75v16c0 19-7 36-19 50 32 13 52 41 52 75 0 22-8 42-21 56 29 12 51 38 54 69 2 21-4 42-16 59h185c25 0 48 12 64 32 19 25 22 57 8 85-15 31-45 49-78 49z m43-114l0 0c-9-12-23-19-37-19h-235-17-199c-10 0-17-7-17-17s7-16 17-16h199c14 0 28-6 37-17 10-10 14-24 13-38-3-26-26-45-53-45h-13-16-151c-9 0-16-8-16-17s7-17 16-17h151c27 0 49-22 49-50 0-29-24-50-58-50h-9-8-91c-10 0-17-7-17-16s7-17 17-17h91c23 0 42-19 42-42v-16c0-23-19-42-42-42h-307c-93 0-168 75-168 167v197c0 99 63 189 156 222 26 9 53 14 80 14h278c-15-48-92-65-103-67h-144c-9 0-17-7-17-16s8-17 17-17h146 20 346c24 0 40-16 48-30 8-17 6-36-5-51z m-355 64c-9 0-17-7-17-16v-34c0-9 8-16 17-16s17 7 17 16v34c0 9-8 16-17 16z m50 0c-9 0-17-7-17-16v-34c0-9 8-16 17-16s17 7 17 16v34c0 9-8 16-17 16z m367 17c5 0 9 2 12 5l33 33c7 7 7 17 0 24s-17 6-23 0l-34-34c-6-6-6-17 0-23 4-3 8-5 12-5z m12-105c-6 7-17 7-24 0s-6-17 0-23l34-34c3-3 7-5 12-5s8 2 11 5c7 7 7 17 0 24l-33 33z m-78 155c9 0 16 7 16 17v33c0 9-7 17-16 17s-17-8-17-17v-33c0-10 7-17 17-17z m16-200c-9 0-16-7-16-17v-33c0-9 7-17 16-17s17 8 17 17v33c0 10-8 17-17 17z m116 117h-33c-9 0-17-8-17-17s8-17 17-17h33c10 0 17 8 17 17s-7 17-17 17z" horiz-adv-x="1000" />

<glyph glyph-name="finger-1" unicode="&#xe823;" d="M991 544c-10 20-27 36-46 44l24 24c21 21 21 54 0 75l0 0c-21 20-54 20-75 0l-52-53-53 53c-20 20-55 20-75 0-10-10-15-23-15-38 0-14 5-27 15-37l17-16h-168c28 18 52 46 52 87v18h-331c-33 0-66-6-97-17-112-40-187-147-187-267v-207c0-117 95-212 212-212h324c43 0 79 35 79 79v18c0 19-8 38-20 52 33 13 55 43 55 79 0 23-9 44-23 59 31 12 54 40 58 73 2 22-4 44-18 62h106 123 20c25 0 50 12 66 34 21 26 24 60 9 90z m-72 118c7 7 18 7 25 0 7-7 7-18 0-25l-41-41h-7-21c-1 0-1 0-1 0 0 1-1 2-1 3-1 2-2 4-3 5-1 1-1 2-2 3 0 0-1 1-2 2l53 53z m-180 0c7 7 18 7 25 0l53-53 13-13h-49l-42 41c-7 7-7 18 0 25z m-124-207h-18-210c-10 0-18-8-18-18s8-17 18-17h210c15 0 29-7 39-18 10-11 15-25 14-40-3-27-28-48-56-48h-14-16-160c-9 0-17-7-17-17 0-10 8-18 17-18h160c28 0 51-23 51-53 0-31-25-52-61-52h-10-8-97c-9 0-17-8-17-18s8-17 17-17h97c24 0 44-20 44-44v-18c0-24-20-44-44-44h-324c-98 0-177 79-177 177v207c0 105 66 199 164 234 27 10 56 15 85 15h293c-16-51-97-68-109-70h-152c-9 0-17-8-17-18 0-10 8-18 17-18h154 22 274 7v-105h-158z m194 0v105h36l16 0v-105h-52z m146 20l0 0c-10-13-25-20-39-20h-20v105l14 0c25 0 42-16 49-32 9-18 7-37-4-53z m-428 68c-9 0-17-8-17-18v-35c0-10 8-17 17-17s18 7 18 17v35c0 10-8 18-18 18z m53 0c-10 0-17-8-17-18v-35c0-10 7-17 17-17s18 7 18 17v35c0 10-8 18-18 18z" horiz-adv-x="1000" />

<glyph glyph-name="finger-2" unicode="&#xe824;" d="M991 544c-16 32-47 52-82 52h-346c28 19 52 47 52 88v18h-331c-33 0-66-6-97-17-112-41-187-148-187-267v-208c0-117 95-212 212-212h324c43 0 79 36 79 80v17c0 20-8 38-20 52 33 14 55 44 55 80 0 23-9 43-23 59 31 12 54 40 58 73 2 22-4 44-18 61h249c25 0 50 13 66 34 21 27 24 60 9 90z m-36-68c-10-13-25-20-39-20h-55v27l30 30c7 7 7 18 0 25s-18 7-25 0l-35-35c-1-2-3-3-4-6 0-2-1-4-1-6v-35h-211-18-210c-10 0-18-8-18-18s8-18 18-18h210c15 0 29-6 39-17 10-11 15-26 14-41-3-26-28-47-56-47h-14-16-160c-9 0-17-8-17-18 0-9 8-17 17-17h160c28 0 51-24 51-53 0-31-25-53-61-53h-10-8-97c-9 0-17-8-17-17s8-18 17-18h97c24 0 44-20 44-44v-17c0-25-20-44-44-44h-324c-98 0-177 79-177 176v208c0 104 66 198 164 234 27 9 56 14 85 14h293c-16-51-97-68-109-70h-152c-9 0-17-8-17-17s8-18 17-18h154 22 417c25 0 43-17 50-32 9-18 7-38-4-53z m-428 67c-9 0-17-7-17-17v-35c0-10 8-18 17-18s18 8 18 18v35c0 10-8 17-18 17z m53 0c-10 0-18-7-18-17v-35c0-10 8-18 18-18s18 8 18 18v35c0 10-8 17-18 17z m264-157l-62-62c-17-16-26-38-26-62s9-45 26-62c17-17 39-26 62-26 22 0 45 9 62 26 34 34 34 90 0 124l-62 62z m37-161c-21-21-54-21-75 0-10 10-15 23-15 37s5 28 15 37l38 38 37-38c21-20 21-54 0-74z" horiz-adv-x="1000" />

<glyph glyph-name="first-aid-kit" unicode="&#xe825;" d="M583 350h-166v-117h-117v-166h117v-117h166v117h117v166h-117v117z m84-150v-100h-117v-117h-100v117h-117v100h117v117h100v-117h117z m60 467c-23 105-118 183-227 183s-204-78-227-183h-273v-217-33-567h1000v567 33 217h-273z m-227 150c91 0 171-64 193-150h-386c22 86 102 150 193 150z m467-934h-934v534h100v-67h167v67h400v-67h167v67h100v-534z m-700 567h-100v33h100v-33z m0-33v-34h-100v34h100z m566 33h-100v33h100v-33z m0-33v-34h-100v34h100z m34 33v67h-167v-67h-400v67h-167v-67h-100v183h234 466 234v-183h-100z" horiz-adv-x="1000" />

<glyph glyph-name="fit" unicode="&#xe826;" d="M417 484c29 0 59 9 83 28 24-19 54-28 83-28 35 0 69 12 95 37 7 7 7 17 1 24-7 7-17 7-24 0-39-38-104-38-143 0-1 1-2 1-3 2-1 1-2 1-3 2-1 0-2 0-3 0-1 1-2 1-3 1-1 0-2 0-3-1-1 0-2 0-3 0-1-1-2-1-3-2-1-1-2-1-3-2-39-38-103-38-143 0-7 7-17 7-24 0-6-7-6-17 1-24 26-25 60-37 95-37z m186-108c-12-17-28-26-45-26s-32 9-44 26c-1 1-2 2-2 2-1 1-1 2-2 2 0 0-1 0-1 0-1 1-2 1-3 2-1 0-2 1-3 1-1 0-2 0-3 0-1 0-2 0-3 0-1 0-2-1-3-1-1-1-2-1-3-1 0-1-1-1-1-1 0 0-1-1-2-2 0 0-1-1-1-2-13-17-29-26-45-26s-33 9-45 26c-6 8-16 10-23 4-8-5-9-16-4-23 19-26 44-40 72-40 21 0 41 8 58 25 17-17 37-25 58-25 28 0 53 14 72 40 6 7 4 18-3 23s-18 4-24-4z m397-26c0 118-41 227-110 312l0 1-5 6c-52 62-117 110-189 141-1 0-1 1-2 1-6 2-12 5-18 7-2 1-5 2-7 3-5 1-10 3-15 5-4 1-7 2-10 3-5 1-10 3-14 4-4 1-8 2-12 3-5 1-9 2-13 3-5 1-9 2-14 3-4 0-8 1-11 2-6 0-11 1-16 2-4 0-7 1-11 1-6 1-12 1-18 2-2 0-5 0-8 0-9 1-18 1-27 1s-18 0-27-1c-3 0-5 0-8 0-6-1-12-1-18-2-4 0-7-1-11-1-5-1-10-2-15-2-4-1-8-2-12-2-5-1-9-2-14-3-4-1-8-2-13-3-4-1-8-2-12-3-4-1-9-3-14-4-3-1-6-2-9-3-6-2-11-4-16-5-2-1-5-2-7-3-6-2-12-5-18-7-1 0-1-1-2-1-72-31-137-79-189-141l-2-3c-71-87-113-196-113-316 0-131 51-250 133-339v-1l5-5c2-1 3-3 5-4 5-5 10-10 15-15 4-4 8-8 12-12 5-4 11-8 16-13 3-3 7-6 11-9 5-3 9-6 14-10 6-4 12-8 18-12 5-3 10-6 15-9 4-3 9-5 13-8 5-3 11-5 16-8 4-2 8-5 13-7 8-3 15-7 23-10 4-2 8-3 11-4 7-3 14-6 21-8 3-1 6-2 9-3 9-3 19-6 29-8 1 0 2-1 3-1 0 0 1 0 1 0 38-9 77-14 117-14 40 0 80 5 117 14 1 0 1 0 1 0 1 0 2 1 3 1 10 2 20 5 30 8 2 1 5 2 8 3 7 2 14 5 21 8 4 1 7 2 11 4 8 3 16 7 23 10 5 2 9 5 14 7 5 3 10 5 15 8 4 3 9 5 13 8 5 3 10 6 15 9 6 4 12 8 18 13 5 3 9 6 14 9 4 3 8 6 12 10 5 4 9 8 14 12 5 4 9 8 14 13 5 4 10 9 14 14 2 1 4 3 5 4l5 5v1c82 89 133 208 133 339z m-169-329c-3-3-6-5-9-8-6-6-13-12-19-18-3-2-5-4-8-6-4-3-8-7-12-10-2-2-5-4-7-5-5-3-9-7-14-10-2-1-4-3-6-4-15-10-31-19-47-27-3-2-6-3-9-5-4-2-9-4-13-6-4-1-8-3-11-4-4-2-8-4-12-5-5-2-10-3-15-5-2-1-5-2-7-3 57 70 125 114 191 125v-6c-1-1-1-2-2-3z m-381 179v33h100v-33h-100z m-100-58c0-46-15-90-42-126-43 26-92 42-141 48v103h181c2-9 2-17 2-25z m0-234c-5 2-9 3-13 5-5 1-9 3-13 5-3 1-7 3-10 4-5 2-9 4-14 6-3 2-5 3-8 5-17 8-33 17-48 27-2 1-4 3-6 4-5 3-9 6-13 10-3 1-5 3-8 5-4 3-8 7-12 10-3 2-5 4-8 6-6 6-12 11-18 17-3 3-6 6-10 9-1 1-1 2-2 3v6c86-14 153-79 191-125-3 1-5 2-8 3z m27 292l0 0-210 0v33h250v-33h-40z m-221 392c22-16 49-25 77-25 10 0 17 7 17 16s-7 17-17 17c-36 0-69 20-87 51 0 1 0 2 0 2 42 49 93 89 152 118 0 0 0 0 0 0 6 3 12 5 18 8 2 1 3 1 4 2 6 2 11 4 17 6 2 1 4 2 6 3 5 1 10 3 15 4 3 1 6 2 9 3 4 2 9 3 13 4 4 1 7 2 11 3 4 1 8 2 12 2 4 1 9 2 13 3 3 1 7 1 11 2 4 1 9 1 14 2 3 0 7 1 10 1 5 1 11 1 17 1 2 1 5 1 7 1 8 0 17 1 25 1s17-1 25-1c2 0 5 0 8-1 5 0 11 0 16-1 4 0 7-1 10-1 5-1 10-1 15-2 3-1 7-1 10-2 5-1 9-2 13-3 4 0 8-1 12-2 4-1 7-2 11-3 4-1 9-2 13-4 3-1 6-2 9-3 5-1 10-3 15-5 2 0 4-1 6-2 6-2 11-4 17-6 1-1 2-1 4-2 6-3 12-5 18-8 0 0 0 0 0 0 59-29 110-69 152-118 0 0 0-1 0-2-18-31-51-51-87-51-9 0-17-7-17-17s8-16 17-16c28 0 55 9 77 25-7-50-11-101-11-152v-173h-123l38 76c4 8 1 18-7 22-8 4-18 1-23-7l-45-91h-90-166-90l-45 90c-4 9-14 12-23 8-8-4-11-14-7-22l38-76h-123v173c0 51-4 101-11 152z m427-359h250v-33l-209 0 0 0h-41v33z m69-66h181v-103c-49-6-97-22-141-48-27 36-42 80-42 126 0 8 1 16 2 25z m215-105v5 133h0v33 34 173c0 59 5 119 15 178 53-76 85-168 85-268 0-109-38-209-100-288z m-749 556c10-59 15-118 15-178v-173-34-66h0v-100-5c-62 79-100 179-100 288 0 100 32 192 85 268z m291-726c-1 3-2 5-4 7-24 34-51 63-79 87 37 44 57 99 57 156 0 8 0 16-1 25h35 66v-100c0-9 8-17 17-17s17 8 17 17v100h66 35c-1-9-1-17-1-25 0-57 20-112 57-156-28-24-55-53-79-87-2-2-3-4-4-7-29-6-60-9-91-9-31 0-62 3-91 9z" horiz-adv-x="1000" />

<glyph glyph-name="gum" unicode="&#xe827;" d="M933 549c0 42-4 84-15 123-7 30-24 59-48 85l0 0-3 3c-17 19-37 36-61 51-1 1-2 1-3 2 0 0 0 0 0 0-1 1-3 2-4 2-3 2-6 4-9 6-1 0-2 1-3 1 0 0 0 0-1 0-20 11-43 18-67 23 0 0 0 0 0 0-1 0-2 0-2 0-4 1-7 2-11 2-2 0-3 1-5 1 0 0 0 0 0 0-51 6-105-1-157-21 0 0 0 0 0 0l-4-2c-1 0-1 0-1 0l-4-2c-1 0-3-1-4-2l0 0c-1 0-1 0-2 0l0 0c0 0 0 0 0 0-7-3-12-5-17-6-15-6-15-6-38 0l0 0-1 1c-1 0-1 0-2 0-51 15-112 30-168 29 0 0 0 0 0 0 0 0 0 0-1 0-5 0-10-1-15-1-1 0-1 0-2 0 0 0 0 0 0 0-17-2-33-5-48-10-7-3-14-6-21-9-1 0-1 0-1-1-6-2-11-5-17-8 0-1-1-1-1-2-19-11-36-26-52-44-1-1-2-1-2-2l-5-6 0-1c-40-49-65-121-59-211-44 0-79-36-79-79v-542c0-43 36-79 80-79h841c43 0 79 36 79 79v542c0 39-29 72-67 78z m-781 176c1 0 2 0 3 0 1 0 1 0 2 0 9 1 16 9 15 18 0 2 0 5-1 8 15 16 32 30 52 40 2 1 3 2 5 3 7 3 13 6 20 8 13 5 28 8 43 9 2 0 4 0 6 0 4 0 8 0 13 0 48 0 101-12 143-24l12-4c0 0 0 0 0 0 30-9 36-8 59 1 5 1 10 3 18 6 1 1 3 1 4 2 1 0 2 0 3 1l3 1c50 21 103 27 151 20 2 0 4-1 7-1 28-5 55-15 78-30 18-11 34-24 47-37 0-1 0-1 1-1 0 0 0 0 0 0 0 0 0-1 0-1-1-9 6-17 15-18 1 0 1 0 1 0 1 0 1 0 1 0 16-20 27-41 33-62 35-131-3-287-36-425-6-25-12-50-17-74l-5-22c-13-59-27-120-57-173-10-18-20-28-27-27-8 1-29 13-60 108-4 13-8 28-12 43-15 57-32 122-89 156-64 38-136 15-188-61-28-42-44-89-60-135-6-17-12-36-19-53-11-28-21-50-42-60-19 4-39 53-47 73l-2 4c-56 137-79 290-100 438-3 21-6 42-9 63 0 0 0 0 0 0l0 0c-1 5-2 11-2 16l-1 8c-5 63 6 131 39 182z m815-796c0-25-21-46-46-46h-841c-26 0-47 21-47 46v542c0 25 21 46 47 46h2c0-1 1-2 1-3h0c3-21 6-42 9-62 22-151 44-306 102-446l2-5c15-35 39-94 81-94h3l4 1c38 16 53 53 63 80 7 19 14 37 20 55 15 46 30 89 56 127 20 29 74 93 143 52 46-28 60-83 74-136 4-15 8-31 13-46 20-62 46-126 88-130 21-3 41 12 59 43 33 58 47 122 61 183l4 22c6 24 12 48 18 73 21 91 45 189 49 284 20-5 35-23 35-44v-542z m-505 121c-41 0-75-34-75-75s34-75 75-75 75 34 75 75-33 75-75 75z m0-117c-23 0-41 19-41 42s18 42 41 42 42-19 42-42-19-42-42-42z m118 508c1 0 2 0 3 0 6 1 11 3 17 4 9 2 14 11 12 20-2 9-11 15-20 12-5-1-10-2-16-3-9-2-15-11-13-20 2-8 9-13 17-13z m80 26c2 0 5 0 7 1 5 2 10 5 16 8 8 4 11 14 7 22s-14 12-22 7c-5-2-10-4-15-7-8-3-12-13-8-22 2-6 9-9 15-9z m167 177c2 0 4-1 6-1 7 0 13 4 16 11 2 5 4 11 6 16 2 9-2 19-11 22-9 2-18-2-21-11-2-5-4-10-5-15-4-9 0-18 9-22z m-36-74c5 0 10 2 14 6 3 5 7 10 10 15 5 8 3 18-4 23-8 5-18 3-23-4-3-5-7-9-10-13-5-8-4-18 3-24 3-2 7-3 10-3z m-59-60c4 0 7 1 10 4 5 3 10 7 14 11 7 6 8 16 2 23-6 7-17 8-24 2-4-3-8-7-12-10-7-6-9-16-3-23 3-5 8-7 13-7z m-237-77c3 0 6 0 9 0 3 0 6 0 9 0 9 1 16 8 16 18 0 9-8 16-17 16-5 0-11 0-16 0-9 0-17-7-17-16 0-10 7-17 16-18z m-302 158c3-5 7-10 10-15 4-4 9-6 14-6 3 0 7 1 10 3 7 6 8 16 3 23-3 5-7 9-10 13-5 8-15 10-23 5-7-6-9-16-4-23z m-34 62c3-6 9-10 16-10 2 0 4 0 6 1 9 3 13 13 9 22-2 5-3 10-5 15-3 8-12 13-21 10-9-3-14-12-11-21 2-6 4-11 6-17z m166-177c6-3 11-6 16-8 3-1 5-2 7-2 7 0 13 4 15 10 4 9 0 19-8 22-5 3-10 5-15 7-8 4-18 1-22-7-4-8-1-18 7-22z m83-31c6-1 11-3 17-4 1 0 2 0 4 0 7 0 14 5 16 13 2 9-4 18-13 20-6 1-11 2-16 3-9 3-18-3-20-12-2-9 3-18 12-20z m-142 68c3-2 6-3 10-3 5 0 10 2 13 6 6 8 5 18-3 24-4 3-8 6-12 10-7 6-18 5-24-2-6-7-5-17 2-23 5-4 9-8 14-12z" horiz-adv-x="1000" />

<glyph glyph-name="gum-1" unicode="&#xe828;" d="M462 118c-41 0-75-34-75-75s34-76 75-76 75 34 75 76-33 75-75 75z m0-117c-23 0-41 19-41 42s18 41 41 41 42-18 42-41-19-42-42-42z m537 326c1 8 1 15 1 23 0 11 0 21-1 32 0 2 0 4-1 8 0 0 0 0 0 0 0 8-1 15-2 23 0 0 0 0 0 0l-1 8c0 0 0 0 0 1-3 19-7 39-12 58 0 0 0 1-1 1l-1 5c0 2-1 4-2 6-1 4-2 8-3 12-1 3-2 6-4 10l0 2c-1 1-1 1-1 2-3 9-7 18-11 27 0 1 0 2-1 3-3 8-7 16-11 24-1 1-1 2-2 4l-5 10 0 0c-18 33-39 64-64 92l0 0-5 6c-22 24-45 46-71 65-1 1-2 1-3 2-4 4-9 7-14 10-2 2-5 4-7 5-4 3-8 5-12 8-3 2-7 4-11 6-3 2-6 4-9 5-5 3-10 6-15 9-2 1-4 2-6 3-6 3-12 6-18 9-1 0-3 1-4 1-7 3-14 6-22 9 0 0 0 1-1 1-47 18-98 29-151 32 0 0-1 0-2 0-8 1-17 1-26 1-89 0-173-23-245-64 0-1-1-1-1-1-7-4-13-8-19-11-2-2-4-3-6-4-5-3-9-6-14-9-3-2-6-5-9-7-3-2-6-4-9-7-4-3-8-6-12-9-2-2-4-3-6-5-5-4-9-8-14-12-1-1-2-2-3-3-5-4-10-9-15-15 0 0 0 0-1 0-4-4-8-8-12-13l-6-6 0 0c-19-21-36-43-51-67l0 0-7-12c-2-3-3-6-5-9-2-4-5-9-7-14-1-1-2-3-3-5l-2-2c0-1-1-3-1-4-4-7-7-14-10-21-1-1-1-3-2-5-4-8-7-17-11-26 0-1 0-2 0-2l-1-4c-1-1-1-3-2-4-2-6-4-12-6-18 0-2 0-3-1-4l-1-5c0-1-1-1-1-2-5-19-9-38-12-58 0 0 0-1 0-1l-1-8c0 0 0 0 0-1-1-8-2-15-2-23 0 0 0 0 0-1l-1-7c0 0 0 0 0 0-1-10-1-21-1-31 0-8 0-15 1-23l0 0c1-27 4-53 9-78 30-147 124-269 251-338 1 0 1-1 1-1 7-3 13-7 20-10 1 0 2-1 2-1 7-3 13-6 19-9 1 0 3-1 4-1 6-3 12-5 18-7 1-1 3-2 5-2 5-2 11-4 17-6 2-1 4-1 6-2 6-2 11-3 17-5 2 0 4-1 7-2 5-1 10-2 16-3 3-1 5-2 8-2 5-1 10-2 16-3 3 0 5-1 8-1 6-1 11-2 16-2 3-1 6-1 9-1 6-1 11-1 17-2 3 0 5 0 8 0 8-1 17-1 25-1s17 0 25 1c3 0 5 0 8 0 6 1 12 1 17 1 3 1 6 1 9 2 5 0 11 1 16 2 3 0 6 1 8 1 6 1 11 2 16 3 3 0 6 1 8 2 6 1 11 2 16 3 3 1 5 2 7 2 6 2 12 3 17 5 2 1 4 1 6 2 6 2 12 4 17 6 2 0 4 1 5 2 6 2 12 4 18 7 1 0 3 1 4 1 6 3 13 6 19 9 1 0 1 1 2 1 7 3 13 7 20 10 0 0 0 1 1 1 127 69 221 191 251 338 5 25 8 51 9 78l0 0z m-33 1l0-4c0-1 0-1 0-2-1-7-1-14-2-21 0-1 0-1 0-2-1-7-2-14-3-21 0-3-1-6-1-9-1-4-2-9-3-13-28-136-115-251-234-316 0 0-1 0-1-1-6-3-12-6-18-9-1 0-2-1-3-1-5-3-11-5-17-8-1 0-2-1-4-1-5-3-11-5-16-7-2-1-3-1-5-2-5-2-11-4-16-5-2-1-4-2-6-2-5-2-10-3-15-5-2 0-5-1-7-1-5-2-10-3-15-4-2 0-5-1-7-1-5-1-10-2-15-3-3-1-5-1-8-1-5-1-10-2-15-2-3-1-5-1-8-1-5-1-11-1-16-2-2 0-5 0-7 0-8-1-16-1-24-1s-16 0-23 1c-3 0-5 0-8 0-5 1-11 1-16 2-3 0-5 0-8 1-5 0-10 1-15 2-2 0-5 0-8 1-5 1-10 2-15 3-2 0-4 1-7 1-5 1-10 2-15 4-2 0-4 1-7 1-5 2-10 3-15 5-2 0-4 1-6 2-5 1-11 3-16 5-1 1-3 1-4 2-6 2-12 4-17 7-1 0-3 1-4 1-6 3-11 5-17 8-1 0-2 1-2 1-7 3-13 6-19 10 0 0 0 0-1 0-118 65-206 180-234 316-1 4-2 9-2 13-1 3-2 6-2 9-1 7-2 14-3 21 0 1 0 1 0 2-1 7-1 14-2 21 0 1 0 1 0 2l0 4c0 8-1 15-1 22 0 10 1 19 1 29 0 1 1 2 1 3l0 5c1 8 1 15 2 22 1 3 1 5 1 8 3 18 7 37 12 55 0 3 1 6 2 9 2 6 4 11 6 17 1 3 2 7 3 10 3 8 6 16 9 24 1 2 2 3 3 5 2 6 5 13 8 19 2 3 3 5 4 8 3-15 5-30 7-45 22-150 44-306 102-446l2-5c15-35 39-94 81-94h3l4 2c38 16 53 53 63 80 7 18 14 37 20 55 15 45 30 88 56 127 20 29 74 92 143 51 46-27 60-82 74-136 4-15 8-31 13-45 20-62 46-127 88-131 21-2 41 13 59 44 33 57 47 121 61 183l7 35c16 70 48 213 66 283 1-2 1-4 2-6 1-3 2-6 4-9 1-5 3-9 4-14 1-3 2-7 4-11 1-3 2-7 3-11 4-17 8-36 11-54 0-3 1-6 1-9 1-7 2-14 2-22 0-1 0-1 0-1l1-6c0-10 1-19 1-29 0-7 0-14-1-22z m-796 351c0 1 1 1 1 2 5 5 10 9 15 14 1 0 2 1 2 2 5 4 9 8 14 12 2 1 4 3 6 4 3 3 7 6 11 9 4 3 7 5 10 8 3 2 5 3 8 5 77 53 169 82 263 82 65 0 128-14 186-39 1 0 1 0 1-1 7-2 13-6 20-9 1-1 3-1 5-2 5-3 10-5 15-8 2-2 5-3 8-5 3-2 7-4 11-6 3-3 7-5 10-7 3-2 5-4 8-5 4-3 8-6 13-9 1-2 3-3 4-4 5-4 10-7 15-11 0-1 1-1 2-2 15-13 30-27 44-42-9-58-23-116-36-172-6-22-11-44-16-65l-4-19c-12-52-24-105-51-151-10-18-18-24-22-23-5 0-24 8-52 93-4 12-7 25-11 38-13 51-29 108-81 138-57 34-122 13-169-54-26-37-40-79-54-119-5-15-11-31-17-47-9-23-18-42-36-51-16 4-34 48-40 62l-2 5c-49 117-70 251-87 371 2 2 4 4 6 6z m50-390l2-4c13-32 35-84 74-84h3l3 1c35 15 48 48 58 72 6 16 12 32 17 48 14 40 27 77 50 111 18 25 65 80 126 45 40-24 53-72 65-118 3-14 7-28 11-41 19-55 42-112 80-116 20-2 39 12 55 40 30 50 42 106 54 161l5 19c4 21 10 42 15 64 12 48 23 97 32 147 16-21 31-43 43-67-11-28-29-106-77-321l-8-35c-13-59-26-121-57-173-10-18-20-28-27-28-8 1-29 13-60 108-4 14-8 28-12 44-15 57-32 122-89 156-64 38-136 14-187-62-29-42-45-89-61-134-6-18-12-36-19-54-11-27-21-49-42-60-19 5-39 54-47 73l-2 5c-56 136-79 290-100 438-3 21-6 42-9 62-1 5-3 9-7 13 0 1-1 1-2 2 9 13 18 27 28 39 17-114 39-240 85-351z" horiz-adv-x="1000" />

<glyph glyph-name="hammer" unicode="&#xe829;" d="M975 584l-39 39 2 3c7 6 7 17 0 23l-58 58 16 16c7 7 7 17 0 24s-17 6-23 0l-17-16-58 58c-6 6-17 6-23 0l-2-2-39 39c-33 32-86 32-118 0l-18-18c-32-32-32-85 0-118l39-39-2-2c-3-3-5-7-5-12 0-4 2-8 5-12l58-58-65-65-40 9c-18 5-37-1-50-14l-450-450c0 0 0 0 0 0l-64-64c-15-15-23-35-23-55 0-21 8-41 23-55 15-15 35-23 55-23 19 0 39 8 55 23l555 555c10 10 14 24 10 38-4 13-15 23-28 26l-5 1 51 51 58-58c3-4 7-5 11-5s9 1 12 5l2 2 39-39c17-16 38-24 59-24 22 0 43 8 59 24l18 18c32 32 32 85 0 117z m-751-574l-39 87 39 39 40-86-40-40z m-65-64l-39 86 40 40 39-87-40-39z m-49-50c-17-17-45-17-63 0-8 9-13 20-13 32s5 23 13 31l48 48 39-87-24-24z m555 556l-376-377-39 87 311 311c4 4 10 6 15 6 2 0 3 0 5 0l82-19c2-1 3-2 4-3 0-2 0-4-2-5z m-43 333l17 17c20 20 51 20 71 0l51-51v0l2-2-88-88-3 2v0l-50 51c-20 19-20 51 0 71z m64-159l112 111c1 1 2 2 2 3l89-89c-1 0-2-1-2-2l-112-112c-1-1-2-1-2-2l-89 89c1 0 2 1 2 2z m265-136l-17-18c-20-19-51-19-71 0l-51 51c0 0 0 0 0 0l-2 2 88 89 3-2v0l50-51c20-20 20-51 0-71z" horiz-adv-x="1000" />

<glyph glyph-name="heart" unicode="&#xe82a;" d="M869 413l-6 1 4 5c16 16 15 42-2 57l-13 13c-8 7-18 11-29 11-11 0-21-5-29-13l-41-44c-24 35-57 67-101 94 16 3 29 7 40 13h92c37 0 67 30 67 67s-30 67-67 67h-100c-12 5-27 8-46 9-4 0-7 2-8 5-3 8-6 16-9 23l15 16c26 26 26 68 0 94-25 25-69 25-94 0l-18-18c-34 10-69 5-101-15-3-2-7-1-9 2-8 11-18 23-31 30-20 10-49 0-64-9-13-9-13-29-10-56 2-9 5-19 8-29 2-6 5-15 6-20l0-4c0-1 0-2 0-2 0-1-1-1-2-2 0 0-1-1-1-1-1-1-2-1-2-2-1 0-2-1-3-1-1-1-2-1-3-2-1 0-2-1-3-1-1-1-2-1-3-1-1-1-2-1-4-2-1 0-2 0-4-1-1 0-2 0-3 0-2-1-3-1-5-1-1-1-2-1-3-1-2 0-4 0-6 0 0 0-1-1-1-1-3 0-5 0-8 0-3 1-7 1-11 1l-79 79c-15 15-42 15-58 0l-13-13c-16-16-16-42 0-58l81-80c0-2 0-4 0-6-2-52-3-106-20-152-3-8-6-17-9-26-3-7-5-14-7-22 0-1 0-1-1-2l-1-5c-1-3-2-5-2-7l-4-16 1 1c-30-136 3-258 101-362 110-118 253-176 437-176 21 0 43 1 65 2 61 4 97 43 99 104 0 45-3 93-9 143v0c-3 20-5 40-7 60-7 56-13 112-28 165l39-9c4 0 7-1 10-1 7 0 15 2 21 6 10 6 16 15 19 26l4 18c5 22-9 44-31 49z m-202 237h59c-5-10-9-21-9-33s4-24 9-34h-59c-18 0-33 15-33 34s15 33 33 33z m150-33c0-19-15-34-33-34s-33 15-33 34 15 33 33 33 33-15 33-33z m-682 110c-1 1-2 2-2 3 0 0 0 1 0 2l0 0c0 1 0 2 0 3 0 1 1 2 2 2l13 13c2 2 4 3 5 3 1 0 4-1 5-3l90-89 8 0c4 1 9 1 14 0 3 0 6 0 9 0 2 0 4 0 6 0 2 1 3 1 5 1 2 0 4 0 6 1 1 0 3 0 4 1 2 0 4 1 6 1 2 0 4 1 6 1 1 1 3 2 5 2 2 1 4 2 5 2 2 1 4 2 5 3 2 1 4 1 6 2 1 1 2 2 4 3 2 1 3 2 5 4 1 1 2 2 3 3 1 0 1 1 2 1 28-22 51-55 37-97-16-47-103-122-187-153 2 6 4 11 6 17 19 52 21 111 22 164 0 3 0 7 1 10l0 8-91 92z m666-572c3-20 5-40 8-61 6-48 9-94 8-137-1-43-25-68-67-71-205-15-360 39-476 162-94 102-124 216-89 349 95 27 208 114 231 181 18 53-4 103-61 143-1 9-4 17-6 25-3 9-6 17-7 24-2 15-1 22-1 25 10 5 23 7 27 5 7-4 13-12 19-20 13-17 36-21 54-10 26 16 54 19 81 8l10-4 33 33c13 14 34 14 47 0s13-34 0-47l-32-32 6-11c5-9 9-19 12-30 4-10 12-19 21-24-1-1-2-3-4-4-1-2-2-3-4-5-1-2-2-4-3-6-1-2-2-4-3-5-1-3-1-6-2-8 0-2-1-3-1-5-1-4-2-9-2-13 0-5 1-10 2-15 0-1 1-2 1-4 1-3 2-6 3-9 1-1 2-3 3-5 1-2 3-4 5-7 1-1 2-3 3-4 2-2 4-4 6-6 1-1 1-2 2-2-7-4-12-11-13-20-3-13 3-25 14-31 45-26 77-57 101-91l4-6c1-1 1-2 2-3 14-21 25-45 34-72l3-9 0 0c18-55 25-116 31-178z m66 216l-4-18c-1-2-2-4-3-4-1-1-3-2-6-1l-58 13c0 0 0 1 0 1-7 18-15 35-24 52l47 50c1 2 4 3 5 3 1 0 3-1 5-2l14-13c3-3 3-8 0-11l-44-46 63-15c4-1 6-5 5-9z m-142-258l-42-28c-29 15-54 31-77 48h61c9 0 17 7 17 16s-8 17-17 17h-100c-1 0-1 0-1 0-44 40-72 85-84 133-6 25-8 48-6 70 0 0 0 0 0 0 30 21 64 21 102 0 14-7 27-17 41-28-1-3-2-5-2-8v-67c0-9 7-16 17-16s16 7 16 16v43c10-11 19-23 28-36 4-4 9-7 14-7 3 0 7 1 10 3 7 6 9 16 4 24-12 16-24 32-37 45l41 32c8 5 9 16 4 23-6 8-16 9-24 3l-45-34c-17 15-34 28-51 37-40 21-78 25-113 11 11 48 32 80 33 81 5 7 3 18-5 23-7 5-18 3-23-5-2-3-64-95-38-210-3-1-5-2-7-4-74-66-77-184-7-267l-1-46c0-9 8-16 17-16 0 0 0 0 0 0 9 0 17 7 17 16l0 34h33c9 0 17 7 17 16s-8 17-17 17h-40c-57 66-58 161-2 216 17-47 48-91 92-130v-86c0-9 8-17 17-17s17 8 17 17v59c24-19 52-36 83-52v-40c0-9 7-17 17-17s16 8 16 17v41l43 28c8 5 10 16 5 24-5 7-16 9-23 4z" horiz-adv-x="1000" />

<glyph glyph-name="implants" unicode="&#xe82b;" d="M913 672c-14 52-54 101-113 139-72 47-175 52-267 14l-3-2c-2 0-3-1-5-2-8-2-14-5-18-7-16-6-16-6-41 2-72 21-164 42-235 17-95-33-180-145-154-319 3-21 6-41 9-62 7-49 15-100 23-150v0c5-24 18-45 39-57 13-9 29-14 44-14 8 0 15 1 22 3 38 11 81 19 128 24l22-101-39-7c-9-2-15-11-14-20 2-8 9-13 17-13 1 0 2 0 3 0l40 7 14-65-44-9c-9-2-15-11-13-20 2-8 9-13 16-13 2 0 3 0 4 0l45 9 15-70-33-6c-9-2-15-11-14-20 2-8 9-13 17-13 1 0 2 0 3 0l34 6 16-73h160l24 108 49 9c9 1 15 10 14 19-2 9-11 16-20 14l-35-7 18 83 40 8c9 1 15 10 13 19-2 9-10 15-20 13l-26-5 15 66 34 7c9 1 15 10 14 19-2 9-10 15-20 13l-21-3 11 45c40-4 76-10 110-18 22-6 45-2 65 10 19 11 33 30 38 52 28 124 50 254 19 370z m-349-789h-106l-10 46 131 23-15-69z m23 104l-146-26-16 72 180 35-18-81z m26 117l-195-39-14 65 223 41-14-67z m22 102l-238-43-22 98c2 0 3 1 5 1 5 0 10 0 15 1 7 0 15 1 23 1 4 0 9 1 13 1 9 0 19 1 28 1 4 0 7 0 11 0 14 0 27 1 41 1 14 0 26 0 39-1 6 0 13 0 19 0 5 0 11-1 17-1 8 0 16 0 24-1 3 0 6 0 8 0 10-1 19-2 28-2 0 0 1 0 1 0l-12-56z m226 104c-3-14-11-25-22-32-12-7-27-10-40-6-34 8-71 15-111 19l0 0-10 1c-49 5-104 8-167 8-15 0-30 0-44 0-4-1-8-1-12-1-10 0-20 0-29-1-6 0-12-1-17-1-8 0-15-1-22-1-7-1-14-1-21-2-4 0-8-1-13-1l-18-2 0 0c-48-6-91-14-130-24-13-4-27-2-40 6-12 7-20 20-23 34-8 50-16 101-23 150-3 21-6 41-9 62-17 111 18 242 132 283 62 22 152 0 214-18 34-10 39-10 63-1 4 2 10 4 17 7 2 1 5 2 7 3l3 1c82 34 173 30 236-11 52-33 87-76 99-119 29-110 7-235-20-354z" horiz-adv-x="1000" />

<glyph glyph-name="implants-1" unicode="&#xe82c;" d="M988 242c0 1 1 2 1 3 2 11 4 22 6 33 0 1 0 2 0 4 2 9 3 18 3 28 1 3 1 5 1 8 1 10 1 21 1 32 0 8 0 16-1 24 0 3 0 7 0 10-1 5-1 9-1 14-1 4-1 8-2 12 0 4-1 7-1 11-1 5-1 9-2 14-1 3-1 6-2 9-1 5-2 9-3 14 0 3-1 5-2 8-1 5-2 10-4 15 0 2-1 5-1 7-2 5-3 10-5 15-1 3-2 5-2 7-2 5-4 10-6 15-1 2-1 5-2 7-2 5-4 10-6 14-1 3-3 6-4 9-2 4-4 8-6 12-3 7-7 14-10 21-1 1-1 1-1 2-4 6-7 13-11 19-1 0-1 1-1 2-4 6-8 12-12 18-1 1-1 1-1 1-4 7-9 13-13 19 0 0-1 0-1 1-5 6-9 12-14 17 0 1-1 1-1 2-3 3-6 7-9 11l-7 7 0 0c-91 100-223 163-369 163-133 0-253-52-343-137l0 1-11-11c-82-82-131-187-143-300 0-1 0-1 0-2-1-7-2-14-2-21 0-2 0-3 0-5-1-8-1-16-1-25 0-9 0-17 1-26 0-4 0-8 1-12 0-4 0-9 1-14 0-4 1-9 2-14 0-3 0-7 1-11 1-5 2-9 3-14 0-4 1-8 2-12 1-4 2-8 3-13 1-4 2-8 3-12 1-4 2-8 3-11 1-5 3-9 4-14 1-3 2-7 4-10 1-5 3-10 5-14 1-3 2-7 4-10 1-5 3-9 5-14 1-2 2-3 3-5l4-11 0 0c81-167 253-283 451-283 223 0 412 147 477 348l0 0 3 11c0 1 0 2 1 3 2 10 5 20 7 30z m-22 80c0-2-1-5-1-7 0-8-1-15-2-22 0-2 0-4-1-7-1-8-2-17-4-26 0 0 0-1 0-1-2-10-4-19-7-29 0 0 0 0 0-1-55-2-110 23-137 62-38 56-35 150-21 220l1 2c7 34 26 124 63 137 1-1 1-1 2-2 7-9 14-17 20-26 2-3 4-5 5-7 7-10 13-19 18-29 1-2 3-4 4-6 6-10 11-21 16-31 1-2 1-3 2-4 11-24 20-48 26-73 0 0 1-1 1-1 3-13 6-25 8-37 0-2 1-3 1-5 2-12 4-24 5-36 0-2 0-4 0-5 1-13 2-25 2-38 0-9-1-19-1-28z m-132 354c-46-29-64-114-73-156l0-2c-8-35-12-76-11-116-8 25-19 50-35 70-24 30-67 63-106 65-11 1-22 0-35-3l-9 42 40 8c9 2 15 10 13 19-2 9-11 15-20 13l-40-8-10 50 41 9c9 2 14 11 12 20-2 9-11 15-20 13l-40-10-16 77h-94l-23-107-44-10c-9-2-14-11-12-20 2-8 9-13 16-13 1 0 3 0 4 0l29 7-11-49-42-9c-9-1-15-10-13-19 2-8 9-14 17-14 1 0 2 0 3 1l28 5-6-30c-24 1-48 1-69-6-30-9-50-42-64-78 1 7 1 13 2 20l0 1 0 2c-5 63-13 115-26 158-12 40-24 66-39 84 84 79 196 127 319 127 131 0 249-54 334-141z m-330-606c-14 7-110 57-110 134 0 9-7 17-16 17s-17-8-17-17c0-70 56-119 95-145-1 0-2-1-3-1-63-22-145 3-179 54-38 56-35 150-21 220l1 2c7 34 26 125 64 137 12 4 26 5 40 5 4 0 8 0 12 0l-5-22c-5-21 0-43 14-59 13-17 33-27 54-28 28-1 61-1 90 0 21 1 41 11 54 28 13 16 18 38 14 59l-10 48c10 2 18 3 26 2 27-2 62-28 81-52 18-22 28-51 37-78 12-40 50-175 0-256-18-31-47-50-88-57-29-5-56-6-85-2-6 1-14 3-22 5-9 3-18 5-26 6z m-450 142c-1 4-2 9-3 13-1 3-2 6-3 9-2 6-3 12-4 19-1 1-1 2-1 3-2 7-3 14-4 21 0 1 0 1 0 2-1 7-2 14-3 21 0 1 0 2 0 3-1 6-1 13-2 20 0 1 0 2 0 3 0 8-1 16-1 24 0 8 1 16 1 23 0 2 0 4 0 6 1 6 1 12 2 18 0 1 0 3 0 5 1 6 2 12 3 18 0 1 0 2 0 4 1 6 2 13 4 19 0 1 0 1 0 2 18 84 58 161 115 222 11-15 20-37 30-70 12-41 20-90 24-150-4-40-2-76 5-107l0-4c0-35-30-110-70-139-22-15-47-25-77-29-6 15-11 29-16 44z m461 438l10-48-99-20 11 50 78 18z m-71 18l14 65h40l10-50-64-15z m88-99l9-43 0 0 17-79c2-11 0-23-7-32-7-9-18-14-29-14-28-1-60-1-88 0-12 0-22 5-29 14-5 7-8 15-8 24 0 2 0 5 0 8l12 55 1 5 0 0 8 39 114 23z m-32-686c-181 0-338 104-415 254 30 5 58 16 81 33 17 12 32 30 45 51 2-47 12-93 35-127 32-48 96-77 158-77 21 0 41 3 60 9 6 2 10 5 15 7 8 4 11 5 18 4 7 0 16-3 24-5 9-2 18-5 27-6 32-4 62-4 95 2 50 9 87 33 111 73 32 53 33 124 25 183 2-4 4-7 7-11 32-47 92-76 154-77-63-182-237-313-440-313z" horiz-adv-x="1000" />

<glyph glyph-name="implants-2" unicode="&#xe82d;" d="M626 420c9 3 14 13 11 22-3 9-12 14-21 11l-12-4v22 76l-62 62h-118l-62-62v-76-35-62l-22-8c-9-2-14-12-11-21 2-8 9-12 16-12 2 0 4 0 5 1l12 3v-67l-22-7c-9-3-14-13-11-22 2-7 9-12 16-12 2 0 4 1 5 1l12 4v-67l-22-7c-9-3-14-13-11-22 2-7 9-12 16-12 2 0 4 0 5 1l12 3v-67l-22-7c-9-3-14-12-11-22 2-7 9-12 16-12 2 0 4 1 5 1l12 4v-39h35v-58l60-80h52l60 80v58h35v114l22 8c9 3 14 12 11 21-3 9-12 14-22 11l-11-4v67l22 8c9 3 14 13 11 22-3 9-12 14-22 11l-11-4v67l22 7c9 3 14 13 11 22-3 9-12 14-22 11l-11-4v67l22 8z m-229 113l41 41h90l41-41v-62h-172v62z m172-199l-40-14c-9-3-14-12-11-21 3-8 10-12 17-12 2 0 3 0 5 1l29 9v-67l-40-13c-9-3-14-13-11-22 3-7 10-12 17-12 2 0 3 1 5 1l29 10v-67l-40-13c-9-3-14-13-11-22 3-8 10-12 17-12 2 0 3 0 5 1l29 9v-68h-34v-80l-43-58h-18l-43 58v80h-34v16l74 24c9 2 14 12 11 21-3 9-12 14-21 11l-64-20v67l74 24c9 3 14 13 11 22-3 9-12 14-21 11l-64-20v67l74 23c9 3 14 13 11 22-3 9-12 14-21 11l-64-20v67l74 24c9 3 14 12 11 21-3 10-12 15-21 12l-64-21v52h169l-37-12c-9-3-14-13-11-22 3-7 10-12 17-12 2 0 3 1 5 1l29 10v-67z m364 328c-14 55-56 107-118 147-76 49-183 55-280 14l-4-1c-1-1-3-2-5-2-8-3-14-6-19-8-16-6-16-6-43 2-76 22-172 45-246 18-100-35-189-154-161-338 3-22 6-44 9-66 8-52 15-106 25-159 4-25 18-47 40-61 14-8 30-13 46-13 8 0 16 1 23 3 28 8 60 14 96 19 9 1 16 10 15 19-2 10-11 17-20 15-37-5-70-12-100-20-14-4-29-1-42 7-13 8-22 21-25 37-9 53-16 106-24 158-3 22-6 44-9 66-25 165 52 270 139 301 65 23 159 0 224-19 35-11 41-11 65-1 5 2 11 4 19 7 2 1 5 2 7 3l3 1c87 37 182 32 248-11 55-36 91-81 103-127 31-116 9-249-20-376-3-14-12-26-24-34-12-7-27-10-42-6-41 10-86 17-139 21-10 1-18-6-18-15-1-10 6-18 15-19 51-4 95-11 134-20 23-6 48-3 68 10 21 12 35 32 40 56 29 130 52 268 20 392z" horiz-adv-x="1000" />

<glyph glyph-name="implants-3" unicode="&#xe82e;" d="M989 421c0 1 0 1 0 2l0 1c17 77 18 181-25 245-43 64-141 94-218 68-5-2-10-5-14-7-8-4-12-5-18-4-7 0-16 3-25 5-9 2-18 5-26 6-33 4-63 4-96-2-50-9-87-33-111-73 0 0 0 0 0 0-14 42-42 88-73 110-66 47-157 49-273 6-58-22-115-84-110-173 3-52 11-112 23-173-14-10-23-26-23-43v-330c0-93 75-168 168-168h664c93 0 168 75 168 168v330c0 12-4 23-11 32z m-867 326c51 19 97 29 137 29 41 0 76-11 104-31 41-29 71-104 70-139l0-3c0-2 0-4-1-6-1-5-1-10-2-15-1-4-1-8-1-12-1-3-1-7-1-10-1-5-1-10-1-15 0-2 0-4 0-7 0-13 1-28 2-42-1-21-3-40-6-58l-1-10c-4-23-8-44-12-63 0 0-1-1-1-2-1-6-3-12-5-18-29-100-50-103-170-103-65 0-134 10-153 84-3 9-5 19-8 29-1 4-2 8-2 11-2 8-4 15-5 23-1 3-2 6-3 9-15 72-26 148-29 209-4 72 41 122 88 140z m845-688c0-74-61-135-135-135h-664c-74 0-135 61-135 135v320c1-3 2-7 3-10 1-7 3-13 4-20 3-11 6-21 9-32 25-96 112-108 185-108 125 0 167 6 202 127 3 8 5 17 7 25 0 1 0 2 1 3 2 9 4 18 6 28 0-1 0-2 0-2 1-3 2-6 3-9 0 0 0-1 0-2 6-17 12-35 21-52 6-13 13-25 22-36 8-10 17-20 28-29l21 25c-9 8-17 16-23 24-17 22-28 51-37 79 0 0 0 0 0 0-2 6-3 11-5 17-1 2-1 4-2 6-1 4-2 7-2 11-6 21-11 47-14 75-1 9-1 17-2 26 0 0 0 0 0 0-1 26 1 51 6 72l0 0c4 17 10 34 19 48 19 31 48 50 88 57 29 5 56 6 85 2 6-1 14-3 22-5 9-2 18-5 26-6 27-13 52-31 72-52 3-3 8-5 12-5 4 0 8 2 12 5 6 6 6 17 0 23-14 15-30 28-48 40 1 0 2 1 3 1 63 22 145-3 179-54 38-56 36-150 21-220l-1-1c0-2 0-4-1-5l-1-5c-8-39-17-69-28-90 0 0 0 0 0 0-2-5-5-10-7-14-1 0-1-1-1-1-3-4-5-7-8-10 0-1-1-1-1-2-2-2-5-4-7-6 0 0-1-1-2-1-3-2-5-4-8-4l10-32c3 1 7 2 10 4 3 1 5 3 7 5 1 0 2 1 3 1 3 2 5 5 8 7 0 0 0 0 0 0 14 14 24 32 33 53 0 0 0 0 0 0 1 4 3 7 4 10v-281z m-112 350c9 3 14 12 11 21-3 8-12 13-21 10l-12-3v21 73l-59 60h-114l-60-60v-73-33-61l-22-7c-8-3-13-12-11-21 3-7 9-11 16-11 2 0 4 0 5 0l12 4v-65l-22-7c-8-3-13-12-11-21 3-7 9-12 16-12 2 0 4 1 5 1l12 4v-65l-22-7c-8-3-13-12-11-21 3-7 9-12 16-12 2 0 4 1 5 1l12 4v-38h33v-55l59-78h50l58 78v55h33v110l22 8c9 3 14 12 11 21-3 8-12 13-21 10l-12-4v65l22 8c9 3 14 12 11 21-3 8-12 13-21 10l-12-4v65l22 8z m-222 109l41 40h86l40-40v-60h-167v60z m167-193l-39-12c-8-3-13-13-10-22 2-7 9-11 16-11 1 0 3 0 5 1l28 9v-65l-39-12c-8-3-13-13-10-22 2-7 9-11 16-11 1 0 3 0 5 1l28 9v-66h-33v-77l-42-56h-17l-41 56v78h-34v15l72 22c9 3 14 12 11 21-3 9-12 14-21 11l-62-19v65l72 22c9 3 14 12 11 21-3 9-12 14-21 11l-62-19v65l72 22c9 3 14 12 11 21-3 9-12 14-21 11l-62-19v49h164l-36-11c-8-3-13-13-10-22 2-7 9-11 16-11 1 0 3 0 5 1l28 9v-65z" horiz-adv-x="1000" />

<glyph glyph-name="implants-4" unicode="&#xe82f;" d="M923 668c-14 53-55 103-115 142-75 48-180 53-274 14l-4-1c-1-1-3-2-4-2-8-3-14-5-19-7-16-7-16-6-42 1-74 22-168 44-240 18-98-35-185-149-158-327 3-21 6-43 9-64 23-154 46-313 105-457l2-5c15-36 40-96 83-96h3l4 1c39 17 54 55 65 83l-32 12c-11-28-21-50-43-61-19 4-40 55-48 74l-2 5c-58 140-81 297-103 449-3 21-6 43-9 64-17 114 18 248 135 290 63 22 154 1 217-18 110-62 110-89 110-201l0-22c0-10 7-17 17-17s17 7 17 17l0 22c0 98 0 144-78 200 0 0 0 0 0 0 5 2 10 4 18 6 2 1 5 2 7 3l3 1c84 35 177 31 242-11 53-34 89-77 101-122 35-134-3-294-37-435-6-26-12-51-18-75l-5-23c-13-60-27-123-58-177-10-18-21-28-28-28-8 1-29 13-61 110l-32-10c20-64 47-130 90-134 22-2 42 13 61 45 33 58 48 124 61 187l5 22c6 25 12 50 18 75 35 145 74 310 37 452z m-264-540c-3 9-13 14-22 11l-11-4v67l22 7c9 3 14 13 11 22-3 9-13 14-22 11l-11-4v66l22 8c9 3 14 12 11 21-3 9-13 14-22 11l-11-4v22 75l-61 62h-117l-61-62v-75-34-62l-22-7c-9-3-14-13-12-22 3-7 10-12 17-12 1 0 3 1 5 1l12 4v-67l-22-7c-9-2-14-12-12-21 3-7 10-12 17-12 1 0 3 0 5 1l12 4v-67l-22-7c-9-3-14-12-12-21 3-8 10-12 17-12 1 0 3 0 5 0l12 4v-39h34v-56l60-80h51l60 80v56h34v113l22 8c9 3 14 13 11 21z m-238 295l41 41h88l42-41v-61h-171v61z m171-402h-35v-80l-42-57h-17l-43 57v80h-34v15l73 23c9 3 14 13 11 22-2 9-12 14-21 11l-63-20v66l73 24c9 3 14 12 11 21-2 9-12 14-21 11l-63-20v67l73 23c9 3 14 13 11 22-2 9-12 14-21 11l-63-20v51h168l-37-12c-9-3-14-13-11-22 3-7 9-12 16-12 2 0 4 1 6 1l29 10v-67l-40-13c-9-3-14-12-11-21 3-8 9-12 17-12 1 0 3 0 5 1l29 9v-66l-40-13c-9-3-14-13-11-22 3-7 9-12 17-12 1 0 3 1 5 1l29 10v-67z" horiz-adv-x="1000" />

<glyph glyph-name="inhalator" unicode="&#xe830;" d="M168 763l-98-24c-9-3-15-12-13-21 2-8 9-13 17-13 1 0 3 0 4 1l99 24c9 2 14 12 12 21-2 9-11 14-21 12z m66 17l-16-5c-9-2-15-11-13-20 2-8 9-13 17-13 1 0 3 0 4 1l16 4c10 2 15 11 13 20-2 9-12 15-21 13z m267-624l-141 537-30-16-32 128c-4 15-13 28-27 36-13 8-29 10-44 6l-182-45c-16-4-28-13-37-27s-10-29-6-44l50-202-31-16 169-637c4-15 18-25 34-25h573v305h-295c0 0-1 0-1 0z m-418 390l-48 193c-2 6-1 13 3 19 3 6 8 10 15 11l182 46c2 0 4 0 6 0 4 0 9-1 13-3 5-4 9-9 11-16l34-135-81-43-135-72z m680-661l-540 0-162 611 277 147 0 0 0 0 130-495c4-15 18-26 34-26h261v-237z m-339 271h-68c-9 0-17-8-17-17s8-17 17-17h68c9 0 17 8 17 17s-8 17-17 17z m-131-5c-3-3-5-8-5-12 0-4 2-9 5-12 3-3 8-5 12-5s9 2 12 5c3 3 5 8 5 12 0 4-2 9-5 12-6 6-18 6-24 0z" horiz-adv-x="1000" />

<glyph glyph-name="iris" unicode="&#xe832;" d="M791 520l0 0-70 57c-1 2-3 3-4 4-7 7-13 13-20 18-2 2-4 3-6 5-7 5-14 10-21 15 0 0-1 1-2 1-52 34-113 53-177 53-9 0-18-1-28-2-1 0-2 0-3 0-8-1-16-2-24-3-3-1-5-1-7-1-8-2-16-4-24-6-2-1-4-1-7-2-7-2-15-5-22-8-2-1-5-1-8-2-6-3-13-6-20-10-3-1-6-2-8-4-7-3-13-7-19-10-3-2-6-4-9-6-6-4-11-8-17-12-3-3-6-5-9-7-7-6-13-12-19-18-2-1-4-2-5-4l-84-74 0 0-178-156 189-163 0 0 72-62c24-24 51-43 79-58 47-25 99-37 151-37h0 0c62 0 125 17 179 53 18 11 35 25 50 41l280 226-209 172z m156-172l-134-108c13 37 20 76 20 115 0 34-5 67-15 99l129-106z m-793 90c-7-27-11-55-11-83 0-33 6-67 15-99l-107 92 103 90z m543-292c-113-113-298-113-413 1l-69 60c-25 45-38 97-38 148 0 44 9 87 28 128l43 38 37 33c1 1 3 2 5 4 5 5 11 10 17 15 2 2 4 3 5 4 6 5 12 10 19 14 0 0 1 1 2 1 104 68 243 62 342-18 0-1 1-1 1-1 6-5 12-11 18-16 1-2 3-3 5-5l65-54c23-44 35-93 35-143 0-58-16-115-47-165l-53-42-2-2z m-83 224h-18c0 3-1 6-2 9l17 7c9 3 13 13 10 22s-13 13-22 9l-17-6c-2 4-5 8-8 12l13 13c6 7 6 18 0 24s-18 7-24 0l-13-13c-3 2-5 4-8 6l7 16c4 9 0 19-8 23-9 3-19-1-22-9l-8-17c-5 2-9 3-14 3v19c0 9-8 16-17 16s-17-7-17-16v-19c-3 0-7-1-10-1l-6 17c-4 8-13 13-22 9-9-3-13-13-10-22l7-16c-4-3-9-6-13-9l-13 13c-6 7-17 7-23 0s-7-17 0-24l13-13c-2-2-4-5-6-8l-17 8c-8 4-18 0-22-9-3-8 0-18 9-22l16-7c-1-5-2-10-3-15h-18c-9 0-17-8-17-17s8-17 17-17h18c1-3 1-6 2-9l-17-7c-8-3-13-13-9-22 2-6 9-10 15-10 2 0 4 0 6 1l17 6c3-4 6-8 9-12l-13-13c-7-7-7-17 0-24 3-3 7-5 12-5s8 2 11 5l13 13c3-2 6-4 8-6l-7-16c-4-9 0-19 9-22 2-1 4-2 6-2 7 0 13 4 16 10l7 17c5-2 10-3 15-3v-18c0-10 7-17 17-17s17 7 17 17v18c3 0 6 1 9 1l7-16c2-7 9-11 15-11 2 0 4 0 6 1 9 3 13 13 10 22l-7 17c5 2 9 5 13 8l13-13c3-3 8-5 12-5s8 2 12 5c6 7 6 17 0 24l-13 13c2 2 4 5 5 8l17-8c2-1 4-1 7-1 6 0 12 4 15 10 4 8 0 18-8 22l-17 7c1 5 2 10 3 15h18c9 0 17 8 17 17s-8 17-17 17z m-134-101c-47 0-84 38-84 84s37 84 84 84 84-38 84-84-38-84-84-84z m-84 286c1 0 3 0 5 1 20 6 41 9 62 9 9 0 17 8 17 17s-8 17-17 17c-25 0-49-4-73-11-8-3-13-13-10-21 2-8 8-12 16-12z m-56-23c2-1 3-1 5-1 3 0 6 1 9 3 15 9 8 23 7 23-1 2-6 11-18 8-2 0-4 0-6-1 0-1 0-1-1-1h0c-7-5-12-15-8-23 3-4 7-7 12-8z m-47-5c-42-44-66-102-66-163 0-10 8-17 17-17s17 7 17 17c0 52 20 102 56 139 7 7 6 18 0 24-7 7-18 6-24 0z" horiz-adv-x="1000" />

<glyph glyph-name="kidney" unicode="&#xe833;" d="M889 628c-92 154-233 235-387 220-111-10-185-48-219-113-59-110 20-254 23-260l5-9 9 0c1 0 4 0 11-1-14-24-22-52-22-82v-166c0-147-119-267-266-267-9 0-17-7-17-16s8-17 17-17c162 0 295 130 299 292 41 39 96 54 148 46 7-35 12-75 14-122 3-118 33-201 88-247 38-31 77-36 98-36 7 0 12 0 14 1 1 0 1 0 2 0 78 0 138 24 178 73 73 87 58 224 53 256 63 104 43 295-48 448z m-452-239c-31-18-64-48-95-100v94c0 26 8 51 21 71 22-10 50-29 74-65z m-69-121c28 49 59 77 87 92 10-19 19-43 27-71-39 4-78-3-114-21z m491-323c-34-40-86-61-153-61-1 0-2 0-3 0l-3 0c-1-1-46-7-88 28-46 39-72 116-75 222-1 42-5 78-11 111 24-9 46-23 66-42v-60c0-10 7-17 16-17s17 7 17 17v49h50c9 0 16 8 16 17s-7 17-16 17h-59c-28 28-62 47-97 56-9 37-20 67-33 92 4 1 7 2 11 2 36 8 66-3 73-10l47-47c3-3 7-5 12-5s8 2 12 5c6 6 6 17 0 23l-36 36 36 35c6 6 6 17 0 23s-17 7-24 0l-37-37c-21 11-54 17-90 10-7-1-14-3-21-6-27 41-57 64-84 78 24 22 56 35 90 35h67c9 0 16 7 16 17s-7 16-16 16h-50v50c0 9-8 17-17 17s-16-8-16-17v-51c-43-4-80-24-107-54-8 2-15 4-21 4-14 30-62 140-19 221 29 55 94 87 193 96 141 13 270-61 355-204 87-146 107-326 45-418l-3-6 1-7c0-1 27-149-44-235z m17 372c-2 1-3 3-5 4 0 0 0 0 0 0l0 0h0c-35 20-59 52-70 90-10 37-4 77 16 112 0 0 0 1 0 1 1 2 2 3 2 5 0 5-1 9-3 12-3 4-7 6-11 7-3 0-5 0-7-1-39-10-79-5-114 15-34 20-59 53-69 91-3 9-12 14-21 12-8-2-14-11-11-20 12-48 43-87 85-111 28-17 59-25 91-25 5 0 10 1 15 1-12-35-14-72-5-108 10-36 30-67 58-91-78-37-121-126-98-212 2-8 9-13 16-13 1 0 3 0 4 1 9 2 14 11 12 20-21 80 26 162 106 183 0 0 0 0 0 0 2 1 4 2 5 3 1 0 1 1 1 1 2 1 3 2 4 4 0 1 0 1 0 1 1 2 2 4 2 5 1 5-1 9-3 13z" horiz-adv-x="1000" />

<glyph glyph-name="kidney-1" unicode="&#xe834;" d="M764 815c-80 0-169-66-173-173-1-33 14-67 29-103 6-13 12-26 17-39-47 19-82 97-82 150 0 10-8 18-17 18s-18-8-18-18c0-73 52-178 125-189 1-2 3-3 4-4 1-2 1-4 2-5-67-10-122-54-149-112-27 60-84 103-152 112 0 3 1 6 1 9 75 11 133 118 133 189 0 10-8 18-18 18s-17-8-17-18c0-54-40-126-85-148 5 12 10 24 16 37 16 36 30 70 29 103-4 107-93 173-173 173-130 0-236-175-236-391s106-391 236-391c48 0 137 0 172 100 14 40-4 87-24 142-17 44-35 93-37 142 78-12 137-78 137-159v-355c0-10 8-18 18-18s18 8 18 18v355c0 80 57 145 133 158-2-48-20-97-37-141-20-55-38-102-24-142 35-100 124-100 172-100 130 0 236 175 236 391s-106 391-236 391z m-389-670c-25-71-83-77-139-77-111 0-200 160-200 356s89 356 200 356c64 0 134-56 138-139 1-25-13-56-27-88-1-3-3-7-4-10-25 61-83 107-147 107-10 0-18-8-18-18s8-18 18-18c64 0 122-63 124-133-3-9-5-18-6-28h-101c-9 0-17-8-17-18s8-18 17-18h98c0-68-46-141-115-141-10 0-18-8-18-18s8-17 18-17c59 0 105 39 130 91 8-24 16-47 24-69 18-47 34-90 25-118z m389-77c-56 0-114 6-138 77-10 28 6 71 24 118 8 22 17 45 24 69 28-54 81-91 139-91 10 0 18 8 18 17s-8 18-18 18c-65 0-124 66-124 137 0 1-1 2-1 2 0 1 1 3 1 4h107c9 0 17 8 17 17s-8 18-17 18h-110c-2 12-5 24-9 36 9 61 60 124 123 124 10 0 18 8 18 18s-8 18-18 18c-65 0-118-48-143-105-2 2-3 5-4 8-14 32-27 63-26 88 3 83 73 139 137 139 111 0 200-160 200-356s-89-356-200-356z" horiz-adv-x="1000" />

<glyph glyph-name="knee" unicode="&#xe835;" d="M1000 350c0 265-206 482-467 499l0 0-6 0c0 0 0 0 0 0-9 1-18 1-27 1-13 0-25-1-38-2-2 0-3 0-5 0-165-14-308-109-388-244 0-1-1-2-1-3-13-22-24-44-33-68-1-2-1-3-2-5-5-12-9-23-12-35 0-1 0-1-1-2l-3-10 1 0c-12-42-18-86-18-131 0-139 57-265 149-356l0 0 7-6c2-2 4-5 7-7 1-1 2-1 2-2 6-5 11-9 16-14 1 0 2-1 2-2 6-4 12-9 17-13 1 0 1-1 2-1 6-5 12-9 18-13 0 0 1-1 1-1 7-4 13-8 19-12 1 0 1-1 2-1 6-4 13-8 19-11 1 0 1-1 2-1 6-3 13-7 19-10 1 0 2-1 2-1 7-3 13-6 20-9 1 0 2-1 3-1 6-3 12-5 19-8 1 0 3-1 4-1 6-2 12-4 18-6 2-1 4-2 6-2 5-2 11-3 17-5 2-1 4-1 6-2 6-1 11-2 17-3 2-1 5-2 8-2 5-1 10-2 15-3 3-1 6-1 9-1 5-1 10-2 15-2 3-1 6-1 9-2 6 0 12 0 17-1 3 0 5 0 8 0 8-1 17-1 25-1 8 0 17 0 25 1 3 0 6 0 8 0 6 1 11 1 16 1 4 1 7 1 10 2 5 0 10 1 15 1 3 1 6 2 10 2 4 1 9 2 14 3 3 0 6 1 9 2 5 1 10 2 15 3 3 1 5 1 8 2 5 2 10 3 15 5 3 0 5 1 8 2 5 2 11 3 16 5 2 1 4 2 6 3 6 2 11 4 17 6 2 1 3 2 5 2 6 3 12 6 18 9 1 0 2 1 3 1 6 3 13 6 19 10 1 0 1 1 2 1 7 3 13 7 20 11 0 0 0 1 0 1 7 4 14 8 20 12 0 0 0 0 0 1 22 14 43 31 63 49l5 5 0 1c94 91 153 218 153 359z m-186 8l-14-56 13-298c-33-30-70-55-111-75 0 0 0 0 0 0-7-3-13-6-19-9-2 0-3 0-4-1-5-2-11-4-17-7-1 0-3-1-5-1-5-2-10-4-15-6-3 0-5-1-7-2-5-1-10-3-14-4-3-1-6-1-8-2-5-1-9-2-14-3-3-1-6-1-9-2-4-1-8-1-13-2-3-1-6-1-9-2-4 0-9-1-13-1-3-1-6-1-9-1-5-1-10-1-15-2-3 0-5 0-8 0-8-1-15-1-23-1-8 0-15 0-23 1-2 0-5 0-8 0-5 1-10 1-15 2-3 0-5 0-8 1-5 0-10 1-14 1-3 1-6 1-9 2-5 1-9 1-14 2-3 1-5 1-8 2-5 1-10 2-14 3-3 1-5 1-7 2-5 1-11 3-16 4-2 1-3 2-5 2-6 2-11 4-17 6-1 0-3 1-4 1-6 3-12 5-18 7-1 1-2 1-2 1-7 3-13 6-19 9-1 0-1 0-1 1-42 19-79 45-113 76 30 138 96 269 97 270l5 11-232 205c1 0 1 1 1 1 3 11 7 21 12 32 0 1 0 2 1 3 4 11 9 21 14 31 1 1 1 3 2 4 73 141 215 238 375 252 2 0 4 0 6 0 11 1 22 2 34 2 6 0 13-1 19-1l228-223c62-60 88-151 67-235z m-781-8c0 37 5 72 13 106l200-177c-16-33-62-134-89-245-76 83-124 194-124 316z m800-52l13 52c24 96-5 198-76 267l-198 194c223-34 395-228 395-461 0-121-46-231-122-314l-12 262z" horiz-adv-x="1000" />

<glyph glyph-name="knee-1" unicode="&#xe836;" d="M1000 350c0 265-206 482-467 499l0 0-6 0c0 0 0 0 0 0-9 1-18 1-27 1-13 0-25-1-38-2-2 0-3 0-5 0-58-5-114-20-164-43l-1 0-8-4c-1-1-3-1-4-2-10-5-20-10-29-16-4-2-7-4-11-6-9-6-18-12-27-18-4-3-7-5-11-8-9-6-18-14-26-21-3-3-7-5-9-8-9-8-18-16-26-25-2-1-3-2-4-4l-10-10 0-1c-22-24-41-50-58-79 0 0 0-1-1-1-13-22-24-45-33-69-1-2-1-3-2-5-5-12-9-24-12-36 0 0 0 0-1-1l-3-10 1 0c-12-42-18-86-18-131 0-139 57-265 149-356l0 0 7-6c2-2 4-4 7-7 1-1 2-1 3-2 5-5 10-9 15-14 1 0 2-1 3-2 5-4 10-9 16-13 1 0 1-1 2-1 6-5 12-9 18-13 0 0 1-1 2-1 6-4 12-8 18-12 1 0 1-1 2-1 6-4 13-8 19-11 1 0 1-1 2-1 6-4 13-7 19-10 1 0 2-1 3-1 6-3 12-6 19-9 1 0 2-1 3-1 6-3 12-5 19-8 1 0 3-1 4-1 6-2 12-4 18-6 2-1 4-2 6-2 5-2 11-3 16-5 3-1 5-1 7-2 6-1 11-2 16-4 3 0 6-1 9-1 5-1 10-2 15-3 3-1 6-1 9-2 5 0 10-1 15-1 3-1 6-1 9-2 2 0 4 0 6 0v0l15-1c1 0 3 0 4 0 8-1 17-1 25-1 8 0 17 0 25 1 2 0 5 0 8 0 2 0 4 0 6 1 4 0 7 0 10 0 4 1 7 1 10 2 5 0 10 1 15 1 3 1 6 1 10 2 4 1 9 2 14 3 3 0 5 1 8 1 1 1 2 1 3 1 4 1 9 2 13 3 3 1 5 1 8 2 4 1 9 3 13 4 0 0 0 0 0 0l0 0c1 0 1 0 2 1 3 0 5 1 8 2 5 2 11 3 16 5 2 1 4 2 6 3 6 2 11 4 17 6 2 1 3 2 5 2 6 3 12 6 18 8 1 1 2 2 3 2 6 3 13 6 19 10 1 0 1 0 2 1 7 3 13 7 19 11 1 0 1 0 2 1 6 4 13 8 19 12 0 0 0 0 1 1 6 4 13 9 19 13 0 0 0 0 0 0 6 5 13 10 19 15 0 0 0 0 0 0 8 7 16 14 24 21l5 5 0 1c94 91 153 218 153 359z m-186 8l-14-56 13-298c-33-30-70-55-111-75 0 0 0 0-1 0-6-3-12-6-18-9-2 0-3 0-4-1-5-2-11-4-17-7-1 0-3-1-5-2 0 0-1 0-1 0 5 43 26 84 59 116 27 26 42 64 39 102-3 62-51 114-111 121-24 3-48-1-70-12-11-6-25-6-37 0-21 11-45 15-69 12-60-7-108-59-112-121-2-38 12-76 40-102 39-38 61-87 61-138v-3c-1 0-1 1-2 1-3 0-5 0-8 1-5 0-10 1-14 1-3 1-6 1-9 2-5 1-9 1-14 2-3 1-5 1-8 2-5 1-9 2-14 3-3 1-5 1-7 2-5 1-10 3-15 4-2 1-4 2-6 2-6 2-11 4-17 6-1 0-3 1-4 1-6 3-12 5-18 7-1 1-1 1-2 1-7 3-13 6-19 9-1 0-1 0-2 1-41 19-78 45-112 76 30 138 96 268 97 270l5 11-232 205c1 0 1 1 1 1 3 11 7 21 12 32 0 1 0 2 1 3 4 11 9 21 14 31 1 1 1 3 2 4 17 33 38 64 63 92 20-32 31-70 30-110 0-38 16-74 44-100 25-22 56-33 88-33 27 0 55 9 77 27 19 15 33 35 41 57 4 12 14 22 26 26 23 8 42 22 57 41 38 47 35 118-6 165-25 28-61 44-98 44-1 0-1 0-2 0-24-1-49 4-72 13 40 16 83 26 127 30 2 0 4 0 6 0 11 1 22 2 34 2 6 0 13-1 19-1l228-223c62-60 88-151 67-235z m-193-459c0 0 0 0-1 0-10-3-20-5-30-7-1 0-2 0-3-1-9-1-18-3-27-4-2 0-4 0-5 0-1 0-2-1-3-1-9-1-18-2-28-2 0 0-1 0-1 0-2 0-3 0-5 0-8-1-17-1-25-1-2 0-3 1-4 1v4c0 60-25 118-71 162-21 20-31 47-30 76 3 46 38 85 83 90 17 2 35-1 50-9 21-10 46-10 67 0 16 8 33 11 51 9h0c44-5 80-44 82-90 2-29-9-56-29-76-43-41-67-94-70-151-1 0-1 0-1 0z m-329 868c35-19 76-29 113-28 28 1 56-12 75-34h0c31-34 33-86 5-121-11-14-25-24-42-30-22-8-39-25-47-47-5-17-16-31-30-42-34-28-87-26-121 5-22 19-34 46-33 75 0 49-14 96-41 135 35 35 76 65 121 87z m-259-417c0 37 5 72 13 106l200-177c-16-33-62-134-89-245-76 83-124 194-124 316z m800-52l13 52c24 96-5 198-76 267l-198 194c223-34 395-228 395-461 0-121-46-231-122-314l-12 262z m-278 235c-74 0-134-59-134-133s60-133 134-133 133 60 133 133-60 133-133 133z m0-233c-55 0-100 45-100 100s45 100 100 100 100-45 100-100-45-100-100-100z" horiz-adv-x="1000" />

<glyph glyph-name="kneecap" unicode="&#xe837;" d="M1000 350c0 265-206 482-467 499l0 0-6 0c0 0 0 0 0 0-9 1-18 1-27 1-13 0-25-1-38-2-2 0-3 0-5 0-165-14-308-109-388-245 0 0 0-1-1-1-13-22-24-45-33-69-1-2-1-3-2-5-5-12-9-24-12-36 0 0-1 0-1-1l-3-10 0 0c-11-42-17-86-17-131 0-139 57-265 149-356l0 0 7-6c2-2 4-4 7-7 1-1 2-1 3-2 5-5 10-9 15-14 1 0 2-1 3-2 5-4 10-9 16-13 1 0 1-1 2-1 6-5 12-9 18-13 0 0 1-1 2-1 6-4 12-8 18-12 1 0 1-1 2-1 6-4 13-8 19-11 1 0 1-1 2-1 6-4 13-7 19-10 1 0 2-1 3-1 6-3 12-6 19-9 1 0 2-1 3-1 6-3 12-5 19-8 1 0 3-1 4-1 6-2 12-4 18-6 2-1 4-2 6-2 5-2 11-3 16-5 3-1 5-1 7-2 6-1 11-2 16-4 3 0 6-1 9-1 5-1 10-2 15-3 3-1 6-1 9-2 5 0 10-1 15-1 3-1 6-1 9-2 6 0 11 0 17-1 3 0 5 0 8 0 8-1 17-1 25-1 8 0 17 0 25 1 3 0 6 0 8 0 6 1 11 1 16 1 4 1 7 1 10 2 5 0 10 1 15 1 3 1 6 2 10 2 4 1 9 2 14 3 3 0 6 1 9 2 5 1 10 2 15 3 3 1 5 1 8 2 5 2 10 3 15 5 3 0 5 1 8 2 5 2 11 3 16 5 2 1 4 2 6 3 6 2 11 4 17 6 2 1 3 2 5 2 6 3 12 6 18 8 1 1 2 2 3 2 6 3 13 6 19 10 1 0 1 0 2 1 7 3 13 7 19 11 1 0 1 0 2 1 6 4 13 8 19 12 0 0 0 0 1 1 6 4 13 9 19 13 0 0 0 0 0 0 6 5 13 10 19 15 0 0 0 0 0 0 8 7 16 14 24 21l5 5 0 1c94 91 153 218 153 359z m-154 0l-8-33c-140-25-411-74-625-112 10 23 18 42 25 56l135 38 79-13c1 0 2-1 3-1 8 0 15 6 17 14 1 9-5 18-14 20l-55 9 16 19c6 8 4 18-3 24-7 6-17 4-23-3l-30-37-133-37-35 31c63 30 168 74 278 121 124 52 252 107 324 142 51-67 70-155 49-238z m-33-346c-33-30-70-55-111-75 0 0 0 0-1 0-6-3-12-6-18-9-2 0-3 0-4-1-5-2-11-4-17-7-1 0-3-1-5-2-5-1-10-3-15-5-3 0-5-1-7-2-5-1-10-3-14-4-3-1-6-1-8-2-5-1-9-2-14-3-3-1-6-1-9-2-4-1-8-1-13-2-3-1-6-1-9-2-4 0-9-1-13-1-3-1-6-1-9-1-5-1-10-1-15-2-3 0-5 0-8 0-8-1-15-1-23-1-8 0-15 0-23 1-2 0-5 0-8 0-5 1-10 1-15 2-3 0-5 0-8 1-5 0-10 1-14 1-3 1-6 1-9 2-5 1-9 1-14 2-3 1-5 1-8 2-5 1-10 2-14 3-3 1-5 1-7 2-5 1-10 3-15 4-2 1-4 2-6 2-6 2-11 4-17 6-1 0-3 1-4 1-6 3-12 5-18 7-1 1-1 1-2 1-7 3-13 6-19 9-1 0-1 0-2 1-41 19-78 45-112 76 7 29 15 61 26 94h598l4-96z m-626 129c3 11 7 22 12 34 0 1 0 1 0 1 96 18 206 37 310 56l253-91h-575z m647 149l6-141-265 95c101 18 193 34 259 46z m-60 332c-72-35-195-87-314-138-20-8-39-16-58-24l270 261 98-96c2-1 3-2 4-3z m-454-195c-1-1-2-2-2-3-61-27-114-50-150-67l-43 37 430 260-235-227z m-191 8l-74 65c1 0 1 1 1 1 3 11 7 21 11 32 1 1 1 2 2 3 4 11 9 21 14 31 1 1 1 3 2 4 73 141 215 238 375 252 2 0 4 0 6 0 11 1 22 2 34 2 6 0 13-1 19-1l97-94-487-295z m-96-77c0 37 5 72 13 106l53-47-30-18 93-82 0 0 43-38c-8-18-19-43-30-73l0 0-2-5c-5-11-9-23-13-36-1-1-1-3-2-5-3-10-7-20-10-30l-7-22h35c-7-23-13-45-19-66-76 83-124 194-124 316z m809-250h34l-9 195 7 28 0 0 5 19c22 90 2 186-52 261l1 0-14 16c0 0 0 1-1 1-2 3-5 6-8 10-4 4-8 8-11 11l-120 117-29-18-73 71c223-34 395-228 395-461 0-121-46-231-122-314l-3 64z" horiz-adv-x="1000" />

<glyph glyph-name="liver" unicode="&#xe838;" d="M990 782c-9 10-21 16-35 16h-709c-56 0-136-37-189-119-63-99-106-289 52-635l0-5c-1-9 3-18 9-24 6-6 15-9 23-9 1 0 1 0 2 0 43 2 166 17 236 108v-195c0-10 8-17 17-17s18 7 18 17v258c0 0 0 0 0 0 0 0 0 0 1 0 4 0 10 0 16 1v-259c0-10 8-17 17-17s17 7 17 17v261c103 10 293 59 330 273 111 74 180 172 204 292 3 13-1 26-9 37z m-421-545c-64-23-126-25-153-25 8 30 34 52 67 52 9 0 17 8 17 17s-8 17-17 17c-44 0-81-27-96-65-16 8-36 14-60 14-9 0-17-8-17-18s8-17 17-17c12 0 21-1 29-4-57-10-98-43-98-82 0-10 8-17 18-17 9 0 17 7 17 17 0 22 33 45 83 51-49-115-186-134-233-137l1 37c1 3 1 5 2 7 0 2 0 3 1 4 0 1 0 2 0 3 1 2 1 4 2 6 0 0 0 1 0 2 1 2 2 4 2 6 0 0 0 1 0 1 23 70 95 171 311 227l0 0c1 0 2 1 3 1l0 0c10 2 21 5 31 7l9 2c12 3 24 5 37 7 0 0 0 0 0 0 6 1 99 18 202 73 1 0 2 1 3 2 3 1 5 2 7 3-25-93-87-157-185-191z m396 514c-22-112-88-204-195-273-13-8-26-16-40-23 0-1-1-1-2-2-13-7-28-14-42-20-16-8-31-14-45-19-10-4-21-7-31-11-3 0-6-1-8-2-11-3-22-7-33-9-3-1-6-2-8-2l-9-2c-10-3-15-4-16-4l0 0c-13-2-27-5-39-8l-8-1c0 0-1 0-1 0-10-3-20-5-30-8-1 0-1 0-2 0 0 0-2-1-2-1 0 0-1 0-1 0-14-3-27-7-40-11-1 0-3-1-4-1-200-63-269-167-292-242 0 0 0-1 0-1-124 298-87 463-31 549 46 71 115 104 160 104h305c-9-116-106-207-224-207-9 0-17-8-17-17s8-17 17-17c137 0 249 106 258 241h370c3 0 6-1 8-4 1-1 3-4 2-9z" horiz-adv-x="1000" />

<glyph glyph-name="lozenge" unicode="&#xe839;" d="M1000 330c0 7 0 14 0 20s0 13 0 20c-1 6-1 12-2 18 0 0 0 0 0 1l-1 14 0 0c-26 251-239 447-497 447-259 0-472-197-497-449l0 0-2-15c0 0 0 0 0 0 0-6 0-11 0-16-1-7-1-14-1-20s0-13 1-20c0-5 0-10 0-16 0 0 0 0 0 0l2-15 0 0c25-252 238-449 497-449 258 0 471 196 497 447l0 0 1 14c0 1 0 1 0 1 1 6 1 12 2 18z m-34-2c-126-7-284-11-449-11-182 0-353 5-483 14 0 6-1 13-1 19s1 13 1 20c130 8 301 13 483 13 165 0 323-4 449-11 1-8 1-15 1-22s0-14-1-22z m-466 489c239 0 436-180 463-412-125 8-283 12-446 12-180 0-350-5-481-14 27 233 225 414 464 414z m0-934c-239 0-437 182-464 414 131-9 301-14 481-14 163 0 321 4 446 12-27-232-224-412-463-412z m0 850c86 0 167-27 234-80 3-2 7-3 10-3 5 0 10 2 14 6 5 8 4 18-3 24-74 57-162 87-255 87-9 0-17-8-17-17s8-17 17-17z m-150-29c2 0 4 1 6 2 11 4 21 8 32 11 16 5 32 8 48 11 9 2 15 10 14 19s-10 15-19 14c-18-3-35-7-52-12-12-4-24-8-35-13-9-3-13-13-9-21 2-7 8-11 15-11z m421-625c-60-61-137-98-222-109-9-1-16-10-14-19 1-8 8-14 16-14 1 0 1 0 2 0 92 11 176 52 242 118 6 7 6 17 0 24s-17 6-24 0z m104 130c-9 4-18 0-22-9-4-10-9-20-15-30-7-15-16-29-25-42-6-8-4-18 3-23 3-2 7-3 10-3 5 0 10 2 14 7 10 14 20 29 28 45 6 11 11 22 16 33 3 9-1 19-9 22z" horiz-adv-x="1000" />

<glyph glyph-name="lungs" unicode="&#xe83a;" d="M986 18c-66 130-82 249-95 353-7 48-12 93-23 136-24 103-79 165-164 186-39 9-80 1-113-22-9-6-17-14-24-22v93 66h-134v-66-93c-7 8-15 16-24 22-33 23-74 31-113 22-84-21-140-83-164-186-11-44-16-91-23-142-13-110-29-235-94-364-17-33-20-59-7-78 16-26 56-31 105-31 16 0 33 0 50 1l10 0c182 6 284 65 310 180 12 50 3 118-6 183-5 39-10 75-10 104 0 18 15 33 33 33 18 0 33-15 33-33 0-29-4-65-10-104-8-65-17-133-6-183 27-115 128-174 310-179 67-3 139 1 164 40 14 22 12 50-5 84z m-453 657h-66v33h66v-33z m0-33v-34h-66v34h66z m-39-98c-2 0-3 0-4 1-1 0-1 0-2 1-2 0-3 1-5 2 0 0 0 0-1 0-1 1-3 2-4 4 0 0 0 0-1 0-1 1-2 3-3 4 0 0 0 0-1 1 0 1-1 2-2 3 0 1-1 1-1 2 0 1 0 1-1 2 0 1-1 3-1 4 0 1 0 1 0 1-1 1-1 3-1 4 0 1 0 1 0 2h66c0-1 0-1 0-2 0-1 0-3 0-4-1 0-1 0-1-1 0-1-1-3-1-4 0-1-1-1-1-2 0-1-1-1-1-2-1-1-1-2-2-3 0-1-1-1-1-1-1-1-2-3-3-4 0 0-1 0-1 0-1-1-3-3-4-4 0 0-1 0-1 0-1-1-3-2-4-2-1-1-2-1-3-1-1-1-2-1-3-1-3-1-5-1-7-1s-4 0-6 1z m-27 231h66v-33h-66v33z m496-823c-18-29-106-26-135-25-167 5-256 54-278 153-11 45-2 110 6 172 6 39 11 77 11 108 0 37-30 66-67 66-37 0-67-29-67-66 0-31 5-69 11-108 8-62 17-127 6-172-22-98-113-148-278-154l-10 0c-54-2-114-4-126 15-5 8-2 24 8 45 68 134 84 262 98 375 7 50 12 97 22 138 22 91 68 144 140 161 9 2 17 3 26 3 21 0 42-6 60-19 24-17 40-44 43-73 1-2 1-4 2-6 0-2 0-3 0-4 1-2 2-5 2-7 1-2 2-4 3-6 1-1 1-3 2-4 1-2 3-5 5-7 0-1 1-2 1-2 2-3 4-5 7-7 0-1 1-1 2-2 2-2 5-4 8-6 0 0 1-1 1-1 3-2 6-3 9-4 1-1 2-1 3-1 3-1 6-2 9-3 3 0 5 0 7-1 2 0 4 0 6 0h0c2 0 4 0 6 0 2 1 5 1 7 1 3 1 6 2 9 3 1 0 2 0 3 1 3 1 6 2 9 4 0 0 1 1 2 1 2 2 5 4 8 6 0 1 1 1 1 2 3 2 5 4 7 7 0 0 1 1 2 2 1 2 3 5 4 7 1 1 2 3 2 4 1 2 2 4 3 6 1 2 1 5 2 7 0 1 0 2 1 4 0 2 1 4 1 6 3 29 19 56 43 73 25 18 56 24 86 16 73-17 118-70 140-161 10-41 15-85 22-132 13-107 29-229 98-364 11-23 14-40 7-51z m-366 520c72 22 120 67 120 120 0 9-8 16-17 16s-17-7-17-16c0-54-84-100-183-100s-183 46-183 100c0 9-8 16-17 16s-17-7-17-16c0-53 49-98 120-120-108-44-186-160-186-297 0-9 7-17 16-17s17 8 17 17c0 156 112 283 250 283s250-127 250-283c0-9 8-17 17-17s16 8 16 17c0 137-77 253-186 297z m203-14c-9 0-17-7-17-16 0-9-7-17-16-17-9 0-17-7-17-17s8-16 17-16c27 0 50 22 50 50 0 9-8 16-17 16z m-100-366c-9 0-17-8-17-17 0-9-7-17-16-17-9 0-17-7-17-16s8-17 17-17c27 0 50 22 50 50 0 9-8 17-17 17z m-33 166c0 10-8 17-17 17-9 0-17 8-17 17 0 9-7 16-16 16s-17-7-17-16c0-28 23-50 50-50 9 0 17 7 17 16z m216-250c-9 0-16 8-16 17 0 9-8 17-17 17s-17-8-17-17c0-28 23-50 50-50 10 0 17 7 17 17s-7 16-17 16z m-633 400c0 10-7 17-17 17-9 0-16 8-16 17 0 9-8 16-17 16s-17-7-17-16c0-28 23-50 50-50 10 0 17 7 17 16z m83-350c-9 0-16 8-16 17 0 9-8 17-17 17s-17-8-17-17c0-28 23-50 50-50 10 0 17 7 17 17s-7 16-17 16z m50 250c-9 0-16-7-16-16 0-9-8-17-17-17-9 0-17-7-17-17s8-16 17-16c28 0 50 22 50 50 0 9-7 16-17 16z m-233-266c-9 0-17-8-17-17 0-9-7-17-16-17-9 0-17-7-17-16s8-17 17-17c27 0 50 22 50 50 0 9-8 17-17 17z" horiz-adv-x="1000" />

<glyph glyph-name="lungs-1" unicode="&#xe83b;" d="M986 18c-66 130-82 249-95 353-7 48-12 93-23 136-24 103-79 165-164 186-39 9-80 1-113-22-9-6-17-14-24-22v93 66h-134v-66-93c-7 8-15 16-24 22-32 23-74 31-113 22-84-21-140-83-164-186-10-44-16-91-23-142-13-110-29-235-94-364-17-33-20-59-7-78 17-26 56-31 105-31 16 0 33 0 50 1l10 0c182 6 284 65 310 180 12 50 3 118-6 183-5 39-10 75-10 104 0 18 15 33 33 33 19 0 33-15 33-33 0-29-4-65-10-104-8-65-17-133-6-183 27-115 128-174 310-179 67-3 139 1 164 40 14 22 12 50-5 84z m-453 657h-66v33h66v-33z m0-33v-34h-66v34h66z m-39-98c-1 0-3 0-4 1-1 0-1 0-2 1-2 0-3 1-4 2-1 0-1 0-2 0-1 1-2 2-4 3 0 1 0 1-1 1-1 1-2 2-3 4 0 0 0 0-1 1 0 1-1 2-1 3-1 1-2 1-2 2 0 1 0 1 0 1-1 2-2 4-2 5 0 1 0 1 0 1-1 1-1 3-1 4 0 1 0 1 0 2h66c0-1 0-1 0-2 0-1 0-3-1-4 0 0 0 0 0-1 0-1-1-3-1-5-1 0-1 0-1-1 0-1-1-2-1-3-1 0-2-1-2-2 0-1-1-1-1-1-1-2-2-3-3-4-1 0-1 0-1-1-1-1-3-2-4-3-1 0-1 0-1 0-2-1-3-2-5-2 0-1-1-1-2-1-1-1-2-1-4-1-2-1-4-1-6-1s-4 0-6 1z m-27 231h66v-33h-66v33z m496-823c-3-4-8-8-13-11 0 1 0 1 0 2 0 9-7 17-17 17s-16-8-16-17c0-4 2-8 4-11-17-4-36-5-54-6 9 1 16 8 16 17 0 9-7 17-16 17s-17-8-17-17c0-9 7-16 16-17-15 0-30 1-38 1-7 0-14 1-21 1 6 2 10 8 10 15 0 9-8 17-17 17s-17-8-17-17c0-6 4-11 9-14-16 1-31 3-45 5 2 2 3 6 3 9 0 9-7 17-17 17s-16-8-16-17c0-1 0-3 1-4-29 6-53 14-74 25 4 3 6 7 6 12 0 10-7 17-17 17-8 0-14-6-16-14-6 4-12 9-17 14 0 0 0 0 0 0 9 0 17 8 17 17 0 9-8 16-17 16-9 0-16-7-17-16-4 6-8 11-12 17 7 2 12 8 12 16 0 9-7 17-16 17-4 0-7-2-10-4-3 8-5 16-7 24-11 45-2 110 6 172 6 39 11 77 11 108 0 37-30 66-67 66-37 0-67-29-67-66 0-31 5-69 11-108 8-62 17-127 6-172-4-21-13-40-24-57-3 2-6 4-9 4-10 0-17-8-17-17 0-5 2-9 5-12-3-3-7-6-10-9-3 2-7 4-12 4-9 0-16-7-16-17 0-2 0-4 1-6-19-11-42-20-68-27 0 9-7 17-17 17-9 0-16-8-16-17 0-2 0-5 1-7-13-2-27-4-41-6 4 3 6 8 6 13 0 9-7 17-16 17s-17-8-17-17c0-6 4-12 9-15-12 0-24-1-37-2l-10 0c-54-2-114-4-126 15-4 5-3 14 1 26 3-4 7-7 13-7 9 0 17 7 17 16 0 10-8 17-17 17-1 0-1 0-2 0 11 23 21 45 30 68 1-1 3-1 5-1 10 0 17 7 17 16 0 8-5 14-11 16 32 96 43 186 53 269 7 50 12 97 22 138 22 91 68 144 140 161 9 2 17 3 26 3 21 0 42-6 60-19 24-17 40-44 43-73 1-2 1-4 2-6 0-2 0-3 0-4 1-2 2-4 2-7 1-2 2-4 3-6 1-1 1-3 2-4 1-2 3-5 5-7 0-1 1-2 1-2 2-3 4-5 7-7 0-1 1-1 2-2 2-2 5-4 7-6 1 0 2-1 3-1 2-2 5-3 8-4 1-1 2-1 3-1 3-1 6-2 9-3 3 0 5 0 7-1 2 0 4 0 6 0h0c2 0 4 0 6 0 2 1 5 1 7 1 3 1 6 2 9 3 1 0 2 0 3 1 3 1 6 2 9 4 0 1 1 1 2 1 2 2 5 4 7 6 1 1 2 1 2 2 3 2 5 4 7 7 0 0 1 1 2 2 1 2 3 5 4 7 1 1 2 3 2 4 1 2 2 4 3 6 1 3 1 5 2 7 0 1 0 3 1 4 0 2 1 4 1 6 3 29 19 56 43 73 25 18 56 24 86 16 73-17 118-70 140-161 10-41 15-85 22-132 9-74 20-154 48-242-2 1-4 2-6 2-9 0-17-8-17-17 0-9 8-17 17-17 6 0 11 3 14 8 2-5 4-10 6-16-2-2-3-5-3-8 0-8 5-14 12-16 8-19 17-39 27-58 11-23 14-40 7-51z" horiz-adv-x="1000" />

</font>
</defs>
</svg>
